<?xml version="1.0" standalone="no"?>
<!DOCTYPE svg PUBLIC "-//W3C//DTD SVG 1.1//EN" "http://www.w3.org/Graphics/SVG/1.1/DTD/svg11.dtd">
<svg xmlns="http://www.w3.org/2000/svg">
<defs >
<font id="LibreBaskerville" horiz-adv-x="526" ><font-face
    font-family="Libre Baskerville"
    units-per-em="1000"
    panose-1="2 0 0 0 0 0 0 0 0 0"
    ascent="970"
    descent="-270"
    alphabetic="0" />
<glyph unicode=" " glyph-name="space" horiz-adv-x="266" />
<glyph unicode="!" glyph-name="exclam" horiz-adv-x="311" d="M125 207Q125 298 119 361T105 472Q100 502 95 528T86 580T80 632T77 690Q77 780 155 780Q233 780 233 690Q233 659 231 633T224 581T215 529T205 472Q197 424 191 362T185 207H125ZM80 65Q80 97
102 119T156 141Q188 141 210 119T232 65Q232 33 210 12T156 -10Q124 -10 102 11T80 65Z" />
<glyph unicode="&quot;" glyph-name="quotedbl" horiz-adv-x="392" d="M86 554Q81 581 75 614T62 678T52 734T48 771Q48 797 64 813T106 830Q132 830 148 813T165 770Q165 758 161 733T150 678T138 614T127 554H86ZM266 554Q261 581 255 614T242 678T232 734T227
771Q227 797 243 813T286 830Q311 830 327 813T344 770Q344 758 340 733T330 678T318 614T307 554H266Z" />
<glyph unicode="#" glyph-name="numbersign" horiz-adv-x="702" d="M625 250H479L441 0H369L405 250H256L217 0H144L183 250H36L47 310H196L219 470H69L79 530H230L266 770H339L303 530H452L487 770H560L525 530H666L655 470H514L491 310H635L625 250ZM292 470L269
310H417L439 470H292Z" />
<glyph unicode="$" glyph-name="dollar" horiz-adv-x="644" d="M353 900V777Q396 777 436 764T508 727T557 673T576 610Q576 584 560 568T518 552Q494 552 480 564T457 594T440 634T423 674T396 705T353 717V473Q420 446 468 418T547 360T592 295T607 220Q607
173 589 133T538 64T458 16T353 -8V-170H285V-9Q232 -6 187 9T108 50T56 108T37 178Q37 213 52 231T96 250Q124 250 141 228T174 146Q196 59 285 52V328Q170 374 117 430T64 562Q64 613 83 653T133 721T203 764T285 779V900H353ZM480 168Q480 210 451 240T353 301V54Q414
62 447 91T480 168ZM177 616Q177 550 285 501V716Q263 716 244 708T209 687T186 655T177 616Z" />
<glyph unicode="%" glyph-name="percent" horiz-adv-x="712" d="M111 0H31L611 770H682L111 0ZM215 780Q242 780 265 768T306 734T334 683T344 620Q344 587 334 559T307 509T266 476T215 464Q189 464 166 476T125 509T97 558T86 620Q86 654 96 683T124 733T165
767T215 780ZM215 499Q241 499 255 524T269 618Q269 691 255 718T215 745Q189 745 175 718T161 618Q161 549 175 524T215 499ZM499 306Q525 306 548 294T589 260T617 209T628 146Q628 113 618 85T590 35T549 2T499 -10Q473 -10 450 2T409 35T381 84T370 146Q370
180 380 209T408 259T449 293T499 306ZM499 25Q525 25 539 50T553 144Q553 217 539 244T499 271Q473 271 459 244T445 144Q445 75 459 50T499 25Z" />
<glyph unicode="&amp;" glyph-name="ampersand" horiz-adv-x="891" d="M356 473Q399 506 418 541T438 617Q438 659 418 684T362 709Q298 709 298 618Q298 579 313 542T356 473ZM282 354Q231 320 204 274T177 179Q177 128 209 96T290 63Q329 63 374 81T460 133L282
354ZM551 224Q575 251 595 278T631 328T654 371T662 402Q662 418 648 425T598 432V472H840V432Q817 432 801 428T771 417T746 398T724 370L585 177Q626 125 673 95T764 65Q792 65 808 74T841 112L867 105Q856 49 816 20T712 -10Q686 -10 663 -4T615 15T563 48T503
97Q452 49 383 20T241 -10Q193 -10 153 3T83 40T37 96T20 167Q20 234 74 291T248 408Q215 455 200 496T184 582Q184 626 198 662T237 725T298 765T377 780Q415 780 447 769T502 738T538 691T551 631Q551 577 513 529T391 425L551 224Z" />
<glyph unicode="&apos;" glyph-name="quotesingle" horiz-adv-x="213" d="M86 554Q81 581 75 614T62 678T52 734T48 771Q48 797 64 813T106 830Q132 830 148 813T165 770Q165 758 161 733T150 678T138 614T127 554H86Z" />
<glyph unicode="(" glyph-name="parenleft" horiz-adv-x="343" d="M323 803Q279 738 250 678T203 560T178 448T170 342Q170 277 179 210T207 77T258 -49T332 -161L299 -194Q168 -78 102 52T35 323Q35 459 99 587T291 831L323 803Z" />
<glyph unicode=")" glyph-name="parenright" horiz-adv-x="343" d="M52 831Q180 715 244 587T308 323Q308 183 242 53T44 -194L11 -161Q54 -110 85 -49T135 77T164 209T173 342Q173 394 166 448T141 559T94 677T20 803L52 831Z" />
<glyph unicode="*" glyph-name="asterisk" horiz-adv-x="492" d="M267 528Q268 493 272 476T282 449T292 431T297 405Q297 379 283 364T246 349Q223 349 208 364T193 406Q193 420 198 430T209 453T220 482T225 527Q201 516 187 500T160 468T134 441T101 430Q82
430 67 444T52 481Q52 495 59 508T83 531Q95 538 106 539T131 540T162 545T203 564Q178 576 158 582T115 589Q91 589 72 606T52 646Q52 669 67 683T103 698Q126 698 137 689T158 666T181 634T224 601Q223 635 218 652T208 679T198 697T193 722Q193 748 207 764T245
780Q268 780 283 764T298 722Q298 708 293 698T282 675T271 646T266 601Q294 617 308 634T331 665T352 689T387 698Q406 698 422 684T438 646Q438 635 433 625T418 607T398 594T375 589Q351 589 332 584T287 564Q311 550 328 546T358 541T383 539T407 531Q438 512
438 481Q438 459 423 445T389 430Q366 430 353 441T329 469T305 501T267 528Z" />
<glyph unicode="+" glyph-name="plus" horiz-adv-x="560" d="M246 86V307H34V369H246V590H314V369H526V307H314V86H246Z" />
<glyph unicode="," glyph-name="comma" horiz-adv-x="262" d="M30 -113Q84 -77 109 -48T135 8Q130 5 122 3T105 0Q84 0 69 19T54 64Q54 97 75 119T129 141Q164 141 185 116T206 48Q206 -6 170 -55T59 -155L30 -113Z" />
<glyph unicode="-" glyph-name="hyphen" horiz-adv-x="457" d="M66 243V336H391V243H66Z" />
<glyph unicode="." glyph-name="period" horiz-adv-x="260" d="M54 64Q54 96 75 118T129 141Q162 141 184 119T206 64Q206 33 184 12T129 -10Q97 -10 76 11T54 64Z" />
<glyph unicode="/" glyph-name="slash" horiz-adv-x="477" d="M94 0H23L394 770H455L94 0Z" />
<glyph unicode="0" glyph-name="zero" horiz-adv-x="755" d="M375 780Q444 780 504 749T610 664T681 537T708 379Q708 298 682 227T610 104T505 21T375 -10Q307 -10 248 20T144 103T73 227T47 379Q47 464 73 537T143 664T247 749T375 780ZM375 48Q411 48 439 63T488
117T518 218T529 376Q529 475 519 541T488 648T440 705T375 722Q339 722 311 705T262 648T232 542T221 376Q221 281 231 218T262 117T310 64T375 48Z" />
<glyph unicode="1" glyph-name="one" horiz-adv-x="436" d="M302 164Q302 125 305 102T320 65T353 46T411 40V0H35V40Q74 41 97 46T133 64T150 99T155 157V520Q155 578 155 616T150 666Q144 688 116 693T30 698V738Q57 739 92 742T165 751T239 764T302 780V164Z" />
<glyph unicode="2" glyph-name="two" horiz-adv-x="651" d="M228 118H432Q457 118 476 122T509 140T536 175T559 233H603L563 0H39V46Q158 148 234 222T353 355T413 463T430 566Q430 639 397 681T307 723Q280 723 257 714T217 687T191 646T181 594Q181 544 206
515T276 486Q271 457 249 440T194 423Q163 423 137 434T91 465T60 512T49 573Q49 618 69 655T127 721T214 764T324 780Q383 780 432 764T516 720T571 652T591 564Q591 504 564 447T488 336T373 229T227 123L228 118Z" />
<glyph unicode="3" glyph-name="three" horiz-adv-x="637" d="M429 216Q429 293 399 335T315 378Q295 370 277 365T245 360Q217 360 202 371T186 404Q186 422 201 432T243 442Q257 442 274 439T306 431Q354 431 382 468T411 581Q411 653 383 690T305 727Q259 727
234 705T208 644Q208 617 223 599T263 581Q257 554 237 539T186 523Q162 523 141 532T103 557T78 593T68 638Q68 670 85 696T133 741T208 770T306 780Q365 780 412 768T494 732T546 675T564 602Q564 570 554 540T524 486T478 443T420 417V411Q458 400 489 381T543
334T577 275T589 207Q589 160 568 120T508 51T417 6T301 -10Q244 -10 196 3T112 40T57 96T37 168Q37 196 47 220T76 263T118 293T169 304Q202 304 225 287T254 240Q224 240 204 216T184 155Q184 106 215 77T300 47Q357 47 393 93T429 216Z" />
<glyph unicode="4" glyph-name="four" horiz-adv-x="664" d="M8 268L373 780H468V271Q504 272 527 276T563 291T581 320T586 367H623V124H586Q586 151 581 168T563 194T527 207T468 212V181Q468 146 471 120T485 77T513 50T561 40V0H218V40Q253 41 274 50T307
77T323 118T327 174V208H8V268ZM327 595H323L93 271H327V595Z" />
<glyph unicode="5" glyph-name="five" horiz-adv-x="595" d="M202 477L204 474Q221 492 251 503T314 515Q365 515 408 497T483 446T533 370T551 274Q551 214 526 163T457 73T353 12T224 -10Q177 -10 138 0T71 29T26 72T10 128Q10 160 25 177T70 195Q92 195 103
184T120 156T131 120T147 83T175 55T227 44Q266 44 296 62T348 113T380 193T391 297Q391 380 369 418T294 457Q250 457 222 436T176 367Q168 344 159 337T135 329Q107 329 107 355Q107 359 109 367L221 780Q249 771 283 767T364 762Q420 762 460 767T524 781L530
780Q516 718 468 685T346 651H249L202 477Z" />
<glyph unicode="6" glyph-name="six" horiz-adv-x="674" d="M629 259Q629 203 607 154T545 69T454 11T341 -10Q276 -10 222 15T130 87T70 196T48 337Q48 428 76 508T152 649T264 745T401 780Q441 780 476 772T536 748T577 713T592 668Q592 639 574 623T526 606Q505
606 493 615T473 637T457 665T440 694T413 716T370 725Q337 725 309 704T261 645T228 556T216 445L219 443Q251 479 286 496T370 513Q425 513 472 494T554 440T609 360T629 259ZM214 283Q214 165 247 105T345 45Q408 45 438 96T468 255Q468 353 440 403T356 454Q312
454 279 426T214 337V283Z" />
<glyph unicode="7" glyph-name="seven" horiz-adv-x="516" d="M228 651Q187 651 161 649T119 641T94 622T76 589L59 550H19L93 830H135Q133 821 132 814T130 801Q130 783 147 777T210 770H528V730Q490 652 463 595T414 491T376 405T343 320T307 222T264 97Q244
39 220 15T161 -10Q131 -10 114 6T97 53Q97 66 100 80T115 118T149 179T207 277Q252 351 281 400T333 489T374 565T418 651H228Z" />
<glyph unicode="8" glyph-name="eight" horiz-adv-x="635" d="M260 350Q218 322 197 282T175 194Q175 126 213 86T316 46Q350 46 378 56T426 83T458 125T470 179Q470 221 439 253T342 314L260 350ZM452 448Q518 406 554 347T590 220Q590 170 570 128T513 55T425
7T314 -10Q258 -10 210 4T126 44T70 105T50 181Q50 238 85 287T186 371Q129 409 99 462T68 575Q68 666 135 724Q167 752 212 766T313 780Q361 780 404 769T480 738Q514 714 532 679T550 603Q550 557 527 521T452 448ZM378 469Q407 493 422 524T438 588Q438 617
428 642T401 685T360 714T308 725Q281 725 259 717T219 694T193 659T183 616Q183 545 310 496L378 469Z" />
<glyph unicode="9" glyph-name="nine" horiz-adv-x="674" d="M45 511Q45 567 67 616T129 701T220 759T333 780Q398 780 452 755T544 683T604 573T626 433Q626 342 598 262T522 121T410 25T273 -10Q233 -10 198 -2T138 22T97 57T82 102Q82 131 100 147T148 164Q168
164 180 155T201 133T217 105T234 76T261 54T304 45Q338 45 367 66T417 125T451 214T463 325L460 327Q428 291 391 274T304 257Q249 257 202 276T120 330T65 410T45 511ZM460 482Q460 603 427 664T329 725Q266 725 236 674T206 515Q206 417 234 367T318 316Q362
316 395 344T460 433V482Z" />
<glyph unicode=":" glyph-name="colon" horiz-adv-x="284" d="M66 64Q66 96 87 118T141 141Q174 141 196 119T218 64Q218 33 196 12T141 -10Q109 -10 88 11T66 64ZM66 380Q66 412 87 434T141 457Q174 457 196 435T218 380Q218 349 196 328T141 306Q109 306 88
327T66 380Z" />
<glyph unicode=";" glyph-name="semicolon" horiz-adv-x="295" d="M49 -113Q103 -77 128 -48T154 8Q149 5 141 3T124 0Q103 0 88 19T73 64Q73 97 94 119T148 141Q183 141 204 116T225 48Q225 -6 189 -55T78 -155L49 -113ZM73 380Q73 412 94 434T148 457Q181 457
203 435T225 380Q225 349 203 328T148 306Q116 306 95 327T73 380Z" />
<glyph unicode="&lt;" glyph-name="less" horiz-adv-x="593" d="M516 141V72L36 304V368L516 600V531L96 336L516 141Z" />
<glyph unicode="=" glyph-name="equal" horiz-adv-x="618" d="M547 422H71V482H547V422ZM547 242H71V302H547V242Z" />
<glyph unicode="&gt;" glyph-name="greater" horiz-adv-x="593" d="M497 336L77 531V600L557 368V304L77 72V141L497 336Z" />
<glyph unicode="?" glyph-name="question" horiz-adv-x="403" d="M118 239V476H153Q290 476 290 565Q290 587 283 606T264 639T235 662T199 671Q179 671 158 666T120 660Q91 660 73 676T54 719Q54 749 73 764T129 780Q174 780 215 760T287 705T338 625T357 530Q357
449 312 405T186 360V239H118ZM72 65Q72 97 94 119T148 141Q180 141 202 119T224 65Q224 33 202 12T148 -10Q116 -10 94 11T72 65Z" />
<glyph unicode="@" glyph-name="at" horiz-adv-x="1061" d="M713 530H834L764 303Q749 254 743 223T736 177Q736 159 748 148T782 137Q813 137 843 162T898 226T938 316T953 418Q953 484 926 540T852 638T739 702T597 725Q505 725 427 693T290 603T199 468T166
300Q166 216 195 147T278 28T407 -49T573 -76Q745 -76 893 24L925 -17Q878 -48 834 -70T744 -106T653 -127T557 -134Q444 -134 349 -102T186 -12T79 126T40 301Q40 401 82 488T198 641T372 743T587 780Q682 780 760 754T893 681T979 568T1010 422Q1010 353 988
290T929 180T843 105T740 77Q686 77 657 106T623 192H619Q586 137 541 107T446 77Q411 77 381 91T328 131T292 191T279 263Q279 315 304 365T369 454T462 516T568 540Q617 540 644 518T686 442H690L713 530ZM580 488Q547 488 517 467T464 411T426 331T412 236Q412
132 472 132Q502 132 533 156T591 219T634 303T651 393Q651 439 633 463T580 488Z" />
<glyph unicode="A" glyph-name="A" horiz-adv-x="809" d="M501 233H218Q171 127 171 86Q171 56 193 48T261 40V0H-13V40Q11 43 28 48T59 62T83 85T102 121L365 780H439L678 196Q699 145 713 116T744 72T782 50T838 41V0H460V41Q508 43 529 51T550 83Q550 97 543
119T524 173L501 233ZM241 293H479L364 596H360L241 293Z" />
<glyph unicode="B" glyph-name="B" horiz-adv-x="797" d="M33 0V40Q67 41 87 46T119 63T135 97T139 154V616Q139 651 136 672T124 706T98 723T54 730V770H375Q526 770 607 722T689 583Q689 464 518 415V411Q573 411 617 396T693 352T741 286T758 203Q758 152 734
114T663 50Q574 0 418 0H33ZM425 61Q586 61 586 206Q586 295 528 336Q498 357 451 366T334 375H286V175Q286 113 318 87T425 61ZM345 435Q390 435 423 443T479 468Q527 501 527 571Q527 644 491 676T375 709H304Q286 709 286 692V435H345Z" />
<glyph unicode="C" glyph-name="C" horiz-adv-x="823" d="M707 770H756L736 517H696Q675 609 615 662T468 715Q409 715 363 692T286 625T238 519T221 378Q221 223 284 140T472 56Q572 56 637 110T731 271H775V0H728L714 79Q604 -10 447 -10Q356 -10 282 17T156
93T76 214T47 372Q47 463 77 538T161 667T291 750T459 780Q520 780 573 763T688 708L707 770Z" />
<glyph unicode="D" glyph-name="D" horiz-adv-x="919" d="M35 0V40Q68 41 88 45T120 62T136 96T140 154V616Q140 651 137 672T124 706T97 723T51 730V770H431Q527 770 608 740T748 657T840 531T873 372Q873 290 842 222T756 104T623 28T452 0H35ZM304 709Q287
709 287 692V175Q287 117 323 89T434 61Q565 61 635 140T706 370Q706 450 687 513T632 619T545 686T429 709H304Z" />
<glyph unicode="E" glyph-name="E" horiz-adv-x="764" d="M287 426Q351 426 390 430T450 446T481 483T495 548H532V255H495Q489 295 479 319T447 355T388 371T287 375V169Q287 137 295 115T324 80T377 61T458 55Q515 55 554 63T620 91T662 144T689 229H729L713
0H35V40Q68 41 89 46T121 63T136 97T140 154V616Q140 651 137 672T123 706T95 723T46 730V770H678L685 574H642Q636 616 623 643T587 687T528 710T438 717H325Q299 717 293 711T287 680V426Z" />
<glyph unicode="F" glyph-name="F" horiz-adv-x="689" d="M287 161Q287 123 292 100T312 64T356 46T433 40V0H35V40Q68 41 89 46T121 63T136 97T140 154V616Q140 651 137 672T123 706T95 723T46 730V770H658L670 559H628Q622 602 611 631T578 679T524 706T443
714H305Q287 714 287 697V408Q348 408 386 413T448 432T481 472T495 538H532V225H495Q489 267 478 292T445 331T384 350T287 355V161Z" />
<glyph unicode="G" glyph-name="G" horiz-adv-x="876" d="M438 -10Q348 -10 276 16T153 92T75 212T47 371Q47 462 76 537T159 667T286 750T450 780Q512 780 568 763T689 708L708 770H744V517H694Q674 611 614 663T462 715Q347 715 284 627T220 379Q220 223 282
140T462 57Q547 57 594 100T642 221Q642 267 618 288T537 315V355H861V315Q812 315 793 294T774 216V83Q752 83 737 82T708 76T675 61T630 35Q553 -10 438 -10Z" />
<glyph unicode="H" glyph-name="H" horiz-adv-x="945" d="M805 161Q805 123 808 100T823 64T855 46T910 40V0H543V40Q580 41 602 46T637 63T654 97T658 154V363H287V161Q287 123 291 100T307 64T341 46T401 40V0H35V40Q69 41 89 46T121 63T136 97T140 154V616Q140
651 137 672T123 706T95 723T46 730V770H391V730Q357 729 337 724T305 706T291 670T287 609V425H658V616Q658 651 654 672T639 706T608 723T553 730V770H899V730Q869 729 851 724T822 706T809 670T805 609V161Z" />
<glyph unicode="I" glyph-name="I" horiz-adv-x="429" d="M393 0H36V40Q70 41 90 46T122 67T137 109T141 184V586Q141 628 138 655T124 699T96 721T46 730V770H383V730Q352 728 334 722T305 699T292 656T288 586V184Q288 137 291 110T306 67T338 47T393 40V0Z" />
<glyph unicode="J" glyph-name="J" horiz-adv-x="407" d="M130 616Q130 651 127 672T113 706T85 723T35 730V770H372V730Q341 729 322 724T293 706T280 670T277 609V-2Q277 -128 213 -194T22 -260Q-69 -260 -118 -229T-168 -150Q-168 -121 -150 -106T-104 -90Q-81
-90 -68 -102T-34 -147Q-14 -180 2 -191T41 -202Q84 -202 107 -155T130 -23V616Z" />
<glyph unicode="K" glyph-name="K" horiz-adv-x="822" d="M287 161Q287 123 290 100T304 64T332 46T382 40V0H35V40Q68 41 89 46T121 63T136 97T140 154V616Q140 650 137 672T123 706T95 723T46 730V770H391V730Q357 729 337 724T305 706T291 670T287 609V387L546
665Q569 690 569 707Q569 718 555 724T501 730V770H774V731Q752 730 736 727T703 714T666 686T615 636L437 450L731 92Q752 66 777 54T843 40V0H473V40Q514 41 532 47T550 67Q550 72 549 76T544 87T533 103T514 127L337 345L287 293V161Z" />
<glyph unicode="L" glyph-name="L" horiz-adv-x="755" d="M724 0H35V40Q68 41 89 46T121 63T136 97T140 154V616Q140 651 137 672T123 706T95 723T46 730V770H391V730Q357 729 337 724T305 706T291 670T287 609V190Q287 148 295 122T325 81T381 61T468 55Q526
55 565 62T630 88T673 141T700 227H740L724 0Z" />
<glyph unicode="M" glyph-name="M" horiz-adv-x="1145" d="M581 187L812 770H1104V730Q1071 730 1051 724T1019 700T1005 654T1001 579V191Q1001 141 1005 112T1021 67T1055 46T1115 40V0H739V40Q776 41 798 46T833 67T850 109T854 184V652H849L580 -10H506L228
652H224V191Q224 141 228 112T244 67T278 46T338 40V0H30V40Q67 41 90 46T125 67T142 109T146 184V586Q146 628 142 656T127 700T96 723T41 730V770H344L577 187H581Z" />
<glyph unicode="N" glyph-name="N" horiz-adv-x="940" d="M670 -10L227 621H223V191Q223 141 226 112T241 67T273 46T327 40V0H30V40Q67 41 89 46T124 67T141 109T145 184V586Q145 628 141 655T126 699T95 721T40 730V770H319L722 192H726V579Q726 628 723 657T708
703T676 724T622 730V770H919V730Q882 729 860 724T825 703T808 660T804 586V-10H670Z" />
<glyph unicode="O" glyph-name="O" horiz-adv-x="943" d="M472 780Q562 780 640 749T775 664T866 537T899 379Q899 298 866 227T775 104T639 21T472 -10Q383 -10 305 20T169 103T78 227T45 379Q45 464 78 537T168 664T304 749T472 780ZM472 55Q530 55 577 77T657
141T707 242T725 376Q725 454 708 516T657 623T577 691T472 715Q413 715 367 692T287 624T237 517T219 376Q219 302 236 243T287 142T366 78T472 55Z" />
<glyph unicode="P" glyph-name="P" horiz-adv-x="717" d="M700 556Q700 448 616 392T372 335H287V159Q287 121 292 98T313 61T357 44T432 40V0H35V40Q68 41 89 46T121 63T136 97T140 154V616Q140 651 137 672T123 706T95 723T46 730V770H392Q544 770 622 716T700
556ZM287 395H352Q449 395 494 434T539 557Q539 632 501 673T382 714H305Q287 714 287 697V395Z" />
<glyph unicode="Q" glyph-name="Q" horiz-adv-x="949" d="M471 780Q562 780 641 749T778 664T870 536T904 378Q904 275 854 189T712 43Q695 32 680 24T644 6T598 -13T534 -36Q512 -44 497 -50T469 -61T448 -72T429 -84V-88Q436 -87 447 -87T468 -86Q511 -86 549
-95T625 -116T701 -136T781 -146Q829 -146 856 -129T898 -72H935Q937 -85 938 -96T939 -115Q939 -146 925 -172T886 -218T827 -249T754 -260Q698 -260 650 -241T558 -199T474 -157T395 -138Q368 -138 351 -147T321 -166T294 -186T261 -195Q244 -195 234 -187T224
-167Q224 -150 239 -136T297 -98L423 -27Q343 -20 274 14T155 102T75 226T46 377Q46 462 78 536T168 664T303 749T471 780ZM471 30Q530 30 578 54T659 124T711 233T730 375Q730 453 712 516T660 623T578 691T471 715Q412 715 366 692T287 624T238 517T220 375Q220
295 237 231T287 123T366 54T471 30Z" />
<glyph unicode="R" glyph-name="R" horiz-adv-x="815" d="M695 577Q695 494 647 438T494 363L726 97Q750 69 783 55T850 40V0H613L365 304Q340 334 322 344T287 355V159Q287 122 292 99T312 62T355 45T432 40V0H35V40Q68 40 88 44T120 61T136 96T140 154V616Q140
651 137 672T124 706T96 723T46 730V770H392Q537 770 616 719T695 577ZM287 415H352Q446 415 492 451T539 572Q539 636 500 675T392 714H305Q287 714 287 697V415Z" />
<glyph unicode="S" glyph-name="S" horiz-adv-x="663" d="M54 255H93Q107 160 169 106T322 51Q359 51 390 60T443 85T477 124T489 175Q489 199 482 216T453 250T396 284T301 323Q184 368 128 427T72 568Q72 615 90 654T140 721T218 764T319 780Q370 780 415 764T504
716L522 766H546L557 550H518Q494 632 443 675T325 719Q263 719 225 689T186 610Q186 589 193 573T219 541T271 511T356 476Q426 449 475 422T556 363T603 296T618 219Q618 168 596 126T535 54T441 7T320 -10Q260 -10 212 6T113 60L93 0H69L54 255Z" />
<glyph unicode="T" glyph-name="T" horiz-adv-x="827" d="M815 550H772Q769 599 758 631T725 683T674 710T604 718Q565 718 542 717T506 712T489 702T485 687V163Q485 131 489 108T508 71T549 49T620 40V0H201V40Q246 41 273 48T314 70T333 108T338 163V687Q338
696 335 702T320 711T289 716T235 718Q199 718 166 715T108 695T68 645T51 550H12L22 770H805L815 550Z" />
<glyph unicode="U" glyph-name="U" horiz-adv-x="880" d="M757 310Q757 225 739 165T681 65T581 8T433 -10Q272 -10 198 57T123 273V547Q123 586 122 612T119 657T114 686T105 706Q96 720 79 725T27 730V770H386V730Q344 730 324 726T293 708Q286 700 282 689T275
659T271 613T270 547V285Q270 171 318 117T468 62Q674 62 674 291V522Q674 564 673 594T668 645T659 680T645 703Q631 717 609 723T548 730V770H872V730Q835 730 815 725T784 705Q776 696 771 682T763 646T759 594T757 522V310Z" />
<glyph unicode="V" glyph-name="V" horiz-adv-x="805" d="M438 172L568 505Q587 554 598 585T616 636T624 668T626 691Q626 715 608 722T536 730V770H820V730Q737 730 705 649L442 -10H368L129 574Q109 621 93 651T59 698T20 722T-31 729V770H347V729Q321 728
304 726T276 720T262 708T258 689Q258 675 263 656T278 610L438 172Z" />
<glyph unicode="W" glyph-name="W" horiz-adv-x="1227" d="M887 194L1022 580Q1046 647 1046 680Q1046 711 1025 720T958 730V770H1242V730Q1204 730 1174 712T1127 649L886 -10H797L623 518L425 -10H342L130 574Q111 625 95 656T61 703T22 724T-28 729V770H350V729Q299
729 280 720T261 688Q261 680 262 673T266 656T273 632T286 597L426 194L588 636Q578 663 568 680T545 707T514 721T473 729V770H826V729Q784 729 764 719T744 678Q744 663 748 643T761 597L887 194Z" />
<glyph unicode="X" glyph-name="X" horiz-adv-x="848" d="M726 111Q751 77 784 59T859 40V0H486V40Q511 40 526 42T550 47T561 55T564 66Q564 72 562 78T553 95T537 120T511 157L404 309L335 224Q313 197 293 174T256 131T229 96T219 68Q219 52 239 46T305 40V0H-2V40Q25
40 44 42T79 52T108 71T139 104L358 371L125 673Q98 708 71 719T10 730V770H386V730Q350 730 334 721T318 694Q318 667 348 627L451 485L580 639Q595 657 601 671T608 699Q608 706 605 712T594 722T569 728T527 730V770H825V730Q783 730 760 724T722 700L499 424L726
111Z" />
<glyph unicode="Y" glyph-name="Y" horiz-adv-x="760" d="M101 644Q86 670 74 687T48 713T20 726T-14 730V770H322V730Q280 730 263 722T246 698Q246 688 252 674T271 636L414 363H418L544 573Q577 629 590 656T603 700Q603 717 588 723T530 730V770H781V730Q759
730 741 723T704 696T660 639T601 543L455 293V191Q455 141 459 111T475 66T507 45T559 40V0H203V40Q234 40 254 45T287 65T303 108T308 184V276L101 644Z" />
<glyph unicode="Z" glyph-name="Z" horiz-adv-x="797" d="M747 0H15V23L518 718H265Q191 718 154 681T102 566H63L79 770H727V747L229 56H515Q569 56 603 65T659 97T693 158T714 255H760L747 0Z" />
<glyph unicode="[" glyph-name="bracketleft" horiz-adv-x="392" d="M220 768V-98H379V-150H96V820H379V768H220Z" />
<glyph unicode="\" glyph-name="backslash" horiz-adv-x="477" d="M22 770H83L454 0H383L22 770Z" />
<glyph unicode="]" glyph-name="bracketright" horiz-adv-x="392" d="M13 768V820H296V-150H13V-98H172V768H13Z" />
<glyph unicode="^" glyph-name="asciicircum" horiz-adv-x="492" d="M293 410L428 230H371L246 329L121 230H64L199 410H293Z" />
<glyph unicode="_" glyph-name="underscore" horiz-adv-x="730" d="M66 -148V-70H664V-148H66Z" />
<glyph unicode="`" glyph-name="grave" horiz-adv-x="299" d="M219 651L85 711Q53 725 35 738T16 768Q16 789 31 801T71 813Q91 813 111 803T156 770L283 651H219Z" />
<glyph unicode="a" glyph-name="a" horiz-adv-x="574" d="M344 285Q260 247 218 215T175 147Q175 118 191 101T231 84Q255 84 276 92T312 115T335 148T344 190V285ZM344 338V380Q344 438 324 464T260 491Q231 491 216 476T188 424Q179 399 163 385T117 371Q89
371 74 388T59 436Q59 484 111 512T270 540Q382 540 430 500T478 364V145Q478 60 512 60Q531 60 547 73L562 44Q548 19 519 5T452 -10Q406 -10 382 18T358 97H353Q324 45 278 18T173 -9Q110 -9 72 26T34 119Q34 163 73 201T203 277L344 338Z" />
<glyph unicode="b" glyph-name="b" horiz-adv-x="674" d="M225 219Q225 182 235 151T264 96T307 60T362 47Q422 47 453 102T484 264Q484 368 454 422T362 477Q326 477 296 458T248 403Q225 355 225 282V219ZM223 461H227Q253 499 294 519T387 540Q440 540 485
519T564 460T617 373T636 266Q636 206 616 156T560 68T477 10T376 -11Q321 -11 273 10T195 67L119 0H85V595Q85 689 72 724Q69 731 65 736T54 744T33 750T-1 756V790L223 830V461Z" />
<glyph unicode="c" glyph-name="c" horiz-adv-x="564" d="M528 83Q490 41 434 18T311 -5Q250 -5 200 14T114 69T59 153T39 263Q39 325 60 376T119 463T210 520T327 540Q372 540 410 531T476 506T520 469T536 422Q536 393 520 376T475 359Q452 359 435 371T400
410Q385 434 375 448T355 469T337 479T315 482Q257 482 225 428T193 277Q193 173 231 117T342 61Q383 61 424 76T502 121L528 83Z" />
<glyph unicode="d" glyph-name="d" horiz-adv-x="694" d="M481 64H477Q408 -10 298 -10Q241 -10 194 10T112 66T58 151T39 261Q39 321 58 372T111 460T191 519T292 540Q342 540 380 525T448 474H452V559Q452 618 451 660T446 716Q441 737 416 746T337 756V790L590
830V258Q590 183 591 143T597 81Q599 68 603 60T615 48T636 42T671 40V1L481 -10V64ZM450 287Q450 325 442 357T418 415Q400 444 372 459T312 474Q253 474 222 420T191 263Q191 159 222 103T311 47Q344 47 374 64T423 110Q437 132 443 164T450 248V287Z" />
<glyph unicode="e" glyph-name="e" horiz-adv-x="585" d="M540 93Q449 -10 313 -10Q251 -10 201 9T114 64T58 149T38 258Q38 320 59 371T118 460T209 519T325 540Q431 540 490 483T549 323Q549 307 544 304T516 300H194Q190 291 190 267Q190 169 232 112T348 55Q390
55 431 74T512 128L540 93ZM346 356Q386 356 397 360T409 382Q409 426 384 454T321 482Q278 482 245 447T201 356H346Z" />
<glyph unicode="f" glyph-name="f" horiz-adv-x="443" d="M17 530H125V586Q125 640 143 685T195 762T274 812T378 830Q412 830 440 824T490 806T522 779T534 745Q534 722 517 707T474 692Q456 692 443 704T402 748Q390 762 377 768T350 774Q310 774 287 726T264
592V530H433V475H264V166Q264 128 268 104T285 66T319 47T373 40V0H35V40Q65 41 83 45T110 62T122 97T125 158V475H17V530Z" />
<glyph unicode="g" glyph-name="g" horiz-adv-x="610" d="M228 108Q255 106 275 104T314 100T351 95T391 89Q469 78 513 31T558 -87Q558 -172 488 -216T282 -260Q157 -260 90 -224T22 -120Q22 -68 49 -42T117 -15Q143 -15 167 -25T209 -56Q183 -61 167 -79T150
-123Q150 -163 185 -184T290 -206Q440 -206 440 -111Q440 -77 418 -53T353 -23L178 1Q67 16 67 100Q67 141 93 167T169 203V207Q146 216 128 232T95 269T74 314T66 365Q66 402 81 434T124 490T189 526T271 540Q314 540 355 527T425 491Q448 505 465 514T496 529T523
537T547 540Q585 540 608 523T632 478Q632 457 619 444T585 430Q570 430 561 436T544 451T526 466T502 473Q481 473 462 446Q472 429 476 410T480 364Q480 326 468 294T431 238T365 196T268 173Q220 168 202 160T183 136Q183 112 228 108ZM276 230Q308 230 326
264T344 359Q344 421 326 454T275 488Q241 488 221 454T201 361Q201 301 221 266T276 230Z" />
<glyph unicode="h" glyph-name="h" horiz-adv-x="714" d="M244 164Q244 123 246 100T257 63T283 46T331 40V0H16V40Q46 42 64 46T91 62T102 96T105 157V568Q105 628 104 662T98 715Q95 728 91 735T79 747T56 753T19 755V792L242 830V461H246Q277 502 315 521T408
540Q506 540 560 480Q586 450 601 408T616 319V164Q616 122 618 99T628 63T654 46T701 40V0H388V40Q418 41 435 45T462 62T474 96T477 157V280Q477 386 454 430T375 474Q315 474 280 430Q263 407 254 373T244 297V164Z" />
<glyph unicode="i" glyph-name="i" horiz-adv-x="361" d="M257 164Q257 124 260 100T272 63T298 46T344 40V0H29V40Q57 41 74 46T101 64T114 99T118 157V280Q118 338 116 375T111 427Q106 452 89 460T25 468V502L257 540V164ZM110 752Q110 785 132 807T187 830Q220
830 242 808T265 752Q265 720 243 698T187 675Q155 675 133 697T110 752Z" />
<glyph unicode="j" glyph-name="j" horiz-adv-x="331" d="M246 -2Q246 -127 186 -193T11 -260Q-66 -260 -109 -232T-153 -161Q-153 -136 -137 -123T-99 -109Q-71 -109 -57 -124T-32 -158T-8 -191T33 -207Q70 -207 88 -178T107 -78V290Q107 345 105 380T99 428Q94
451 77 459T14 468V502L246 540V-2ZM99 752Q99 785 121 807T176 830Q209 830 231 808T254 752Q254 720 232 698T176 675Q144 675 122 697T99 752Z" />
<glyph unicode="k" glyph-name="k" horiz-adv-x="664" d="M358 40Q390 40 403 42T416 53Q416 59 403 82T368 137L292 251L242 203V164Q242 125 245 101T255 64T276 45T311 40V0H16V40Q44 41 61 46T88 63T101 98T105 157V581Q105 642 103 677T93 729T67 751T19
755V792L242 830V274L338 365Q390 414 412 438T434 474Q434 483 416 486T347 490V530H620V490Q582 490 553 477T490 432L393 341L566 96Q589 64 611 52T669 40V0H358V40Z" />
<glyph unicode="l" glyph-name="l" horiz-adv-x="355" d="M247 164Q247 124 250 100T262 63T288 46T334 40V0H19V40Q47 41 64 46T91 64T104 99T108 157V570Q108 628 106 665T101 717Q96 742 79 750T15 758V792L247 830V164Z" />
<glyph unicode="m" glyph-name="m" horiz-adv-x="1106" d="M258 165Q258 123 260 99T271 63T297 46T344 40V0H28V40Q58 42 76 46T103 62T115 96T118 157V281Q118 338 117 376T111 428Q108 441 104 448T90 460T65 466T26 468V502L219 540L231 453H237Q279 500 321
520T420 540Q486 540 529 517T594 451H598Q634 493 684 516T791 540Q851 540 895 525T965 482Q985 459 994 422T1004 319V165Q1004 124 1006 100T1018 63T1044 46T1091 40V0H775V40Q805 41 822 45T849 62T861 97T864 157V288Q864 340 858 376T839 434T805 465T752
475Q717 475 695 458T657 414Q631 367 631 297V165Q631 124 633 100T644 63T670 46T719 40V0H402V40Q432 42 449 46T476 62T488 96T491 157V288Q491 340 485 376T466 434T430 465T375 475Q342 475 321 459T285 416Q272 392 265 361T258 297V165Z" />
<glyph unicode="n" glyph-name="n" horiz-adv-x="727" d="M257 163Q257 122 259 99T270 63T296 46T344 40V0H29V40Q58 42 75 46T102 62T115 96T118 156V281Q118 340 116 376T111 426Q108 439 103 447T88 460T63 466T25 468V502L218 540L231 452H235Q268 494 313
517T412 540Q476 540 515 523T586 464Q603 441 616 405T629 304V163Q629 122 631 99T642 63T668 46T714 40V0H401V40Q431 41 448 45T475 62T487 96T490 156V292Q490 343 484 378T465 434T429 465T374 475Q342 475 319 457T279 407Q270 389 264 361T257 301V163Z"
/>
<glyph unicode="o" glyph-name="o" horiz-adv-x="660" d="M328 540Q388 540 441 520T535 463T599 378T623 269Q623 208 600 157T536 69T442 11T328 -10Q269 -10 216 10T123 68T60 156T37 269Q37 328 60 378T123 464T216 520T328 540ZM328 482Q298 482 273 467T231
423T204 356T194 268Q194 218 203 178T230 110T272 67T328 51Q359 51 384 66T428 110T456 179T466 268Q466 316 456 355T428 422T385 466T328 482Z" />
<glyph unicode="p" glyph-name="p" horiz-adv-x="697" d="M218 465H222Q288 540 394 540Q452 540 500 520T584 463T639 376T659 265Q659 205 640 155T585 68T502 11T396 -10Q299 -10 248 56H244V-83Q244 -123 248 -147T265 -184T301 -202T364 -208V-250H19V-208Q46
-207 63 -202T89 -184T102 -149T106 -90V282Q106 328 104 369T99 428Q94 451 77 460T17 469V508L218 536V465ZM388 483Q356 483 327 469T281 432Q264 409 255 375T246 300V232Q246 161 281 111Q319 56 388 56Q449 56 478 106T508 263Q508 483 388 483Z" />
<glyph unicode="q" glyph-name="q" horiz-adv-x="674" d="M449 311Q449 348 439 379T410 433T368 469T314 482Q254 482 222 427T190 269Q190 165 222 110T314 55Q350 55 379 74T426 128Q449 177 449 249V311ZM451 62H446Q411 24 376 7T293 -10Q238 -10 192 10T111
67T58 154T39 263Q39 324 58 374T111 462T193 519T298 540Q398 540 469 472L545 530H589V-85Q589 -127 591 -151T604 -188T633 -205T686 -210V-250H328V-210Q364 -209 388 -204T426 -185T445 -149T451 -92V62Z" />
<glyph unicode="r" glyph-name="r" horiz-adv-x="498" d="M258 155Q258 116 261 94T276 59T308 44T364 40V0H30V40Q60 42 78 46T105 62T116 96T119 157V279Q119 341 116 378T103 435T75 461T26 468V503L226 540L242 425H246Q273 478 317 509T410 540Q448 540 472
521T496 473Q496 441 478 419T427 397Q412 397 400 403T379 416T360 430T340 437Q321 437 304 412T276 345Q268 315 263 278T258 203V155Z" />
<glyph unicode="s" glyph-name="s" horiz-adv-x="466" d="M85 0H54V182H96Q113 110 145 77T228 44Q265 44 285 59T306 102Q306 130 281 156T200 213Q124 254 91 294T58 386Q58 419 70 447T104 497T156 529T221 541Q252 541 282 532T336 507L354 531H380V380H341Q318
437 294 462T234 487Q206 487 190 472T173 432Q173 404 197 379T279 324Q319 302 348 281T395 239T421 194T430 143Q430 108 417 80T380 32T323 1T248 -10Q205 -10 168 1T107 35L85 0Z" />
<glyph unicode="t" glyph-name="t" horiz-adv-x="382" d="M25 475V520Q85 537 125 571T186 651H237V530H352V475H237V168Q237 106 250 80T296 54Q335 54 355 90L376 61Q348 -10 244 -10Q175 -10 137 22T98 112V475H25Z" />
<glyph unicode="u" glyph-name="u" horiz-adv-x="709" d="M465 366Q465 406 463 429T452 465T426 482T378 490V530H604V227Q604 166 605 132T611 80Q614 67 618 60T631 48T655 42T696 40V1L497 -11L486 78H482Q456 36 409 13T304 -10Q197 -10 141 66Q98 124 98
231V366Q98 407 96 430T86 466T60 482T13 490V530H237V247Q237 146 262 101T342 55Q401 55 433 109Q465 161 465 262V366Z" />
<glyph unicode="v" glyph-name="v" horiz-adv-x="624" d="M101 401Q90 430 80 447T60 474T37 487T7 490V530H306V490Q281 490 267 488T245 482T235 472T233 457Q233 444 238 427T250 393L345 131H349L456 392Q463 409 467 422T471 447Q471 469 456 479T403 490V530H624V490Q597
490 578 476T537 414L350 -10H259L101 401Z" />
<glyph unicode="w" glyph-name="w" horiz-adv-x="891" d="M313 -10H238L101 401Q85 449 64 468T8 490V530H294V490Q258 489 244 480T230 447Q230 436 233 423T241 393L304 159H308L448 530H530L635 159H640L720 366Q730 391 734 409T738 442Q738 468 721 479T675
490V530H890V490Q872 490 860 486T836 467T810 421T775 336L637 -10H558L452 345H448L313 -10Z" />
<glyph unicode="x" glyph-name="x" horiz-adv-x="648" d="M406 404Q427 431 434 442T441 464Q441 478 430 484T391 490V530H621V490Q602 489 587 486T557 475T526 451T489 412L387 294L545 91Q568 61 590 51T645 40V0H327V40Q356 40 367 45T379 64Q379 75 372
87T351 120L293 200L249 147Q232 126 222 113T207 92T201 80T199 71Q199 54 213 47T260 40V0H9V40Q41 40 71 49T118 79L257 242L90 454Q71 478 57 484T17 490V530H322V490Q271 490 271 462Q271 452 282 436L353 336L406 404Z" />
<glyph unicode="y" glyph-name="y" horiz-adv-x="646" d="M287 -157Q276 -179 260 -198T223 -230T180 -252T136 -260Q103 -260 83 -244T63 -201Q63 -176 80 -162T137 -145Q226 -138 252 -89L279 -37L102 401Q90 430 82 447T63 473T40 486T8 490V530H311V490Q272
490 257 483T241 455Q241 447 243 437T250 415L352 123H356L442 318Q455 349 464 369T477 404T484 428T486 446Q486 472 472 481T413 490V530H654V490Q634 490 620 485T592 462T560 412T516 323L287 -157Z" />
<glyph unicode="z" glyph-name="z" horiz-adv-x="568" d="M520 0H26V23L339 477H247Q204 477 177 474T134 459T109 427T94 374H55L67 530H518V507L210 54H298Q350 54 384 58T439 75T472 110T493 170H532L520 0Z" />
<glyph unicode="{" glyph-name="braceleft" horiz-adv-x="354" d="M237 5Q237 -47 255 -75T328 -118V-150Q266 -150 225 -143T159 -119T124 -71T113 4V195Q113 217 109 239T93 280T64 310T19 325V360Q49 366 67 376T95 401T109 438T113 489V659Q113 707 121 739T153
792T217 821T323 830V797Q274 786 256 756T237 675V501Q237 470 233 445T216 399T179 366T114 345V340Q152 335 176 324T213 294T232 252T237 198V5Z" />
<glyph unicode="|" glyph-name="bar" horiz-adv-x="295" d="M201 820V-250H94V820H201Z" />
<glyph unicode="}" glyph-name="braceright" horiz-adv-x="354" d="M117 198Q117 228 122 252T140 294T178 323T240 340V345Q199 352 175 365T138 399T121 444T117 501V675Q117 726 99 756T31 797V830Q96 830 137 821T201 792T232 740T241 659V489Q241 460 244
439T258 402T287 376T335 360V325Q308 323 290 311T261 280T246 240T241 195V4Q241 -41 231 -71T196 -118T130 -143T26 -150V-118Q80 -104 98 -76T117 5V198Z" />
<glyph unicode="~" glyph-name="asciitilde" horiz-adv-x="562" d="M73 249Q83 311 116 347T196 383Q218 383 243 376T295 360T347 344T395 337Q416 337 427 346T447 379H492Q481 313 449 277T369 241Q345 241 321 248T272 265T220 281T167 289Q146 289 137 282T119
249H73Z" />
<glyph unicode="&#xa0;" glyph-name="uni00A0" horiz-adv-x="266" />
<glyph unicode="&#xa1;" glyph-name="exclamdown" horiz-adv-x="311" d="M186 563Q186 472 192 409T206 298Q211 268 216 242T225 190T231 138T234 80Q234 -10 156 -10Q78 -10 78 80Q78 111 80 137T87 189T96 241T106 298Q114 346 120 408T126 563H186ZM231 705Q231
673 209 651T155 629Q123 629 101 651T79 705Q79 737 101 758T155 780Q187 780 209 759T231 705Z" />
<glyph unicode="&#xa2;" glyph-name="cent" horiz-adv-x="579" d="M349 683V540Q397 538 433 527T493 499T529 461T541 419Q541 397 527 378T480 359Q461 359 443 369T405 411Q391 437 378 453T349 476V62Q395 63 433 77T507 121L533 83Q502 48 454 25T349 -6V-147H285V-10Q231
-8 187 12T111 68T62 153T44 261Q44 318 61 366T109 449T185 507T285 537V683H349ZM198 276Q198 111 285 73V479Q198 453 198 276Z" />
<glyph unicode="&#xa3;" glyph-name="sterling" horiz-adv-x="708" d="M242 77Q210 97 189 105T151 113Q113 113 113 81Q113 49 158 49Q181 49 203 56T242 77ZM344 431H557V370H358Q366 341 369 319T372 271Q372 223 363 189T332 126Q350 122 372 119T416 114T459
110T499 109Q551 109 588 120T654 158L665 154Q665 -10 507 -10Q486 -10 464 -7T417 3T361 21T293 49Q283 36 266 25T229 6T186 -6T141 -11Q91 -11 63 11T35 72Q35 115 67 142T150 170Q176 170 205 163T263 143Q264 146 264 153T265 168T266 185T267 199Q267 230
252 275T209 370H78V431H189Q165 506 165 564Q165 613 183 653T234 721T315 765T422 780Q468 780 507 771T574 745T617 705T633 655Q633 604 579 604Q556 604 544 612T523 634T508 663T490 691T462 713T413 722Q359 722 326 695T293 621Q293 612 294 601T297 577T301
554T307 534L344 431Z" />
<glyph unicode="&#xa4;" glyph-name="currency" horiz-adv-x="610" d="M126 128Q103 156 90 190T77 263Q77 341 126 399L51 471L88 506L163 434Q192 457 227 469T305 481Q347 481 382 469T447 434L522 506L559 471L483 399Q534 340 534 263Q534 224 521 190T485
128L559 57L522 22L448 93Q387 46 305 46Q222 46 162 94L88 23L52 57L126 128ZM140 263Q140 231 153 203T188 153T241 119T305 106Q339 106 369 118T422 152T458 202T471 263Q471 296 458 324T423 374T370 408T305 421Q271 421 241 409T189 375T153 325T140 263Z"
/>
<glyph unicode="&#xa5;" glyph-name="yen" horiz-adv-x="851" d="M661 170H497Q497 129 501 104T516 64T549 45T605 38V0H245V38Q280 39 300 45T332 65T346 105T350 170H185V235H350V299H185V364H304L143 646Q128 673 117 689T93 715T65 727T28 730V770H371V730Q324
730 309 723T294 698Q294 678 315 638L458 363H462L580 563Q600 597 612 619T631 655T640 679T642 698Q642 715 629 722T574 730V770H825V730Q803 730 786 725T750 702T710 653T657 568L538 364H661V299H497V235H661V170Z" />
<glyph unicode="&#xa6;" glyph-name="brokenbar" horiz-adv-x="304" d="M206 750V365H98V750H206ZM206 205V-180H98V205H206Z" />
<glyph unicode="&#xa7;" glyph-name="section" horiz-adv-x="560" d="M378 211Q403 227 414 244T425 279Q424 309 400 338T340 387L200 466Q169 449 156 430T143 392Q143 367 161 345T208 307L378 211ZM173 168Q110 203 80 245T50 346Q50 452 149 499Q112 526
91 569T69 660Q69 699 83 730T125 783T190 818T275 830Q319 830 356 820T419 790T461 744T476 685Q476 650 459 630T410 610Q381 610 363 627T344 671Q344 685 348 693T359 708T369 720T374 734Q374 754 346 767T275 780Q223 780 195 758T167 691Q167 679 170 669T186
645T222 614T287 572L392 508Q459 467 486 425T513 328Q513 280 493 245T427 177Q464 145 483 104T503 16Q503 -26 486 -61T439 -121T366 -160T272 -174Q223 -174 182 -161T110 -125T64 -70T47 0Q47 41 65 64T114 88Q143 88 164 69T185 22Q185 5 178 -7T162 -28T146
-46T139 -64Q139 -75 150 -85T180 -102T224 -114T276 -119Q340 -119 375 -93T410 -19Q410 -3 405 10T386 37T347 67T281 107L173 168Z" />
<glyph unicode="&#xa8;" glyph-name="dieresis" horiz-adv-x="365" d="M20 740Q20 768 38 786T84 805Q112 805 130 787T149 740Q149 713 131 695T84 676Q57 676 39 694T20 740ZM216 740Q216 768 234 786T280 805Q308 805 326 787T345 740Q345 713 327 695T280
676Q253 676 235 694T216 740Z" />
<glyph unicode="&#xa9;" glyph-name="copyright" horiz-adv-x="902" d="M857 386Q857 303 825 231T738 106T608 21T449 -10Q365 -10 292 21T163 106T77 232T45 385Q45 466 76 538T162 664T290 749T448 780Q533 780 607 749T737 665T825 540T857 386ZM797 386Q797
456 770 517T695 624T584 696T448 722Q376 722 314 696T205 623T132 516T105 385Q105 316 131 255T204 147T314 75T449 48Q521 48 584 74T694 147T769 254T797 386ZM643 305Q628 239 584 198T461 157Q405 157 360 172T283 216T234 285T217 375Q217 427 235 470T286
544T365 592T467 609Q502 609 532 597T600 558L610 603H632L637 472H610Q597 513 561 536T473 559Q406 559 370 512T333 379Q333 295 369 252T475 208Q579 208 608 305H643Z" />
<glyph unicode="&#xaa;" glyph-name="ordfeminine" horiz-adv-x="381" d="M211 649Q171 632 155 615T138 580Q138 568 147 560T170 552Q187 552 199 572T211 620V649ZM211 687V701Q211 746 169 746Q146 746 137 740T121 715Q116 701 109 694T89 686Q78 686 68
692T57 714Q57 740 87 760T178 780Q238 780 261 763T285 703V601Q285 543 308 543Q325 543 333 556L341 534Q333 522 314 515T273 507Q216 507 216 545H212Q200 528 180 518T134 507Q97 507 75 523T53 566Q53 593 73 613T148 656L211 687Z" />
<glyph unicode="&#xab;" glyph-name="guillemotleft" horiz-adv-x="553" d="M46 262L242 447L274 424L182 262L272 101L238 77L46 262ZM266 262L462 447L494 424L402 262L492 101L458 77L266 262Z" />
<glyph unicode="&#xac;" glyph-name="logicalnot" horiz-adv-x="637" d="M489 303H71V373H561V110H489V303Z" />
<glyph unicode="&#xad;" glyph-name="uni00AD" horiz-adv-x="467" d="M66 242V337H401V242H66Z" />
<glyph unicode="&#xae;" glyph-name="registered" horiz-adv-x="902" d="M857 386Q857 303 825 231T738 106T608 21T449 -10Q365 -10 292 21T163 106T77 232T45 385Q45 466 76 538T162 664T290 749T448 780Q533 780 607 749T737 665T825 540T857 386ZM797 386Q797
456 770 517T695 624T584 696T448 722Q376 722 314 696T205 623T132 516T105 385Q105 316 131 255T204 147T314 75T449 48Q521 48 584 74T694 147T769 254T797 386ZM616 507Q616 462 587 432T493 393L623 248Q638 231 654 223T694 210V183H570L425 354Q410 371
400 377T377 383V276Q377 256 379 243T388 223T410 213T448 210V183H240V210Q271 211 280 223T289 273V522Q289 541 288 553T282 572T269 581T246 585V615H430Q519 615 567 587T616 507ZM377 416H414Q465 416 489 436T514 504Q514 546 495 563T430 580H387Q377
580 377 571V416Z" />
<glyph unicode="&#xaf;" glyph-name="overscore" horiz-adv-x="326" d="M21 692V757H305V692H21Z" />
<glyph unicode="&#xb0;" glyph-name="degree" horiz-adv-x="334" d="M41 660Q41 685 51 706T78 744T118 770T167 780Q193 780 216 771T256 745T283 707T293 660Q293 635 283 614T256 576T216 550T167 540Q141 540 118 549T78 575T51 613T41 660ZM87 660Q87 645
93 631T111 607T136 591T167 585Q199 585 222 607T245 660Q245 691 222 712T167 734Q151 734 137 728T111 712T94 689T87 660Z" />
<glyph unicode="&#xb1;" glyph-name="plusminus" horiz-adv-x="628" d="M280 227V436H68V500H280V709H348V500H560V436H348V227H280ZM560 88H68V152H560V88Z" />
<glyph unicode="&#xb2;" glyph-name="twosuperior" horiz-adv-x="284" d="M105 512H184Q202 512 211 520T229 553H255L240 468H29V486Q74 526 102 555T147 609T170 653T177 694Q177 719 165 733T129 747Q112 747 100 735T88 706Q88 686 98 675T124 663Q122 652
112 645T86 637Q61 637 45 654T28 697Q28 733 58 756T137 780Q186 780 217 756T248 694Q248 670 237 647T207 602T161 559T105 516V512Z" />
<glyph unicode="&#xb3;" glyph-name="threesuperior" horiz-adv-x="283" d="M180 556Q180 584 169 600T137 616Q129 613 122 611T108 609Q97 609 91 615T85 630Q85 649 107 649Q117 649 134 644Q151 644 162 661T173 705Q173 748 135 748Q97 748 97 719Q97 696
121 696Q119 688 109 682T86 676Q66 676 53 689T39 723Q39 749 64 764T135 780Q185 780 214 761T244 708Q244 682 226 662T180 636V632Q214 624 234 602T254 551Q254 513 220 489T134 464Q87 464 57 484T27 535Q27 557 42 571T79 586Q93 586 104 580T118 563Q107
563 99 554T91 531Q91 516 102 507T132 498Q180 498 180 556Z" />
<glyph unicode="&#xb4;" glyph-name="acute" horiz-adv-x="299" d="M16 651L143 770Q167 793 187 803T228 813Q253 813 268 801T283 768Q283 751 265 738T214 711L75 651H16Z" />
<glyph unicode="&#xb5;" glyph-name="mu" horiz-adv-x="744" d="M198 91Q207 61 218 20T238 -61T254 -136T261 -189Q261 -222 243 -241T192 -260Q159 -260 138 -237T117 -178V365Q117 406 115 429T104 465T78 482T30 490V530H254V257Q254 150 278 103T357 55Q393
55 417 71T460 128Q470 153 476 192T483 272V365Q483 405 481 428T470 465T444 482T396 490V530H621V223Q621 166 622 132T628 80Q630 68 634 60T648 48T673 42T713 40V1L514 -11L503 78H499Q477 30 442 10T353 -10Q306 -10 267 14T202 92L198 91Z" />
<glyph unicode="&#xb6;" glyph-name="paragraph" horiz-adv-x="659" d="M512 68Q512 11 515 -29T526 -86Q532 -106 551 -114T612 -122V-165H416V716H368V-165H146V-122Q202 -122 227 -113T261 -83Q263 -77 265 -62T268 -26T270 19T271 68V353Q263 353 255 353T235
352Q139 352 86 406T33 559Q33 662 107 716T322 770H612V727Q568 727 550 720T524 691Q518 675 515 649T512 568V68Z" />
<glyph unicode="&#xb7;" glyph-name="middot" horiz-adv-x="281" d="M65 274Q65 306 86 328T140 351Q173 351 195 329T217 274Q217 243 195 222T140 200Q108 200 87 221T65 274Z" />
<glyph unicode="&#xb8;" glyph-name="cedilla" horiz-adv-x="243" d="M134 -62Q197 -62 233 -87T269 -155Q269 -202 230 -231T127 -260Q70 -260 33 -236T-4 -174Q-4 -154 5 -144T32 -133Q46 -133 55 -141T73 -170Q83 -194 92 -203T119 -212Q139 -212 151 -200T163
-167Q163 -113 87 -113Q79 -113 67 -113T48 -115L46 -112L101 12H166L134 -62Z" />
<glyph unicode="&#xb9;" glyph-name="onesuperior" horiz-adv-x="249" d="M157 543Q157 528 158 518T164 503T178 496T201 493V468H53V493Q67 494 76 496T89 503T95 517T97 540V667Q97 690 97 705T95 725Q93 733 83 735T51 738V763Q76 764 104 768T157 780V543Z" />
<glyph unicode="&#xba;" glyph-name="ordmasculine" horiz-adv-x="383" d="M190 780Q221 780 248 770T297 742T330 699T342 645Q342 615 330 590T297 546T249 518T190 507Q160 507 133 517T85 546T53 589T41 645Q41 674 53 699T85 742T132 770T190 780ZM190 744Q163
744 146 717T128 645Q128 599 145 572T190 544Q219 544 236 571T254 645Q254 689 237 716T190 744Z" />
<glyph unicode="&#xbb;" glyph-name="guillemotright" horiz-adv-x="553" d="M315 77L281 101L371 262L279 424L311 447L507 262L315 77ZM95 77L61 101L151 262L59 424L91 447L287 262L95 77Z" />
<glyph unicode="&#xbc;" glyph-name="onequarter" horiz-adv-x="712" d="M108 0H28L608 770H679L108 0ZM242 543Q242 528 243 518T249 503T263 496T286 493V468H138V493Q152 494 161 496T174 503T180 517T182 540V667Q182 690 182 705T180 725Q178 733 168 735T136
738V763Q161 764 189 768T242 780V543ZM369 102L524 312H555V101Q581 102 587 108T594 137H613V43H594Q594 62 588 67T555 73V65Q555 37 561 29T588 20V0H444V20Q458 21 467 22T480 28T486 41T488 62V72H369V102ZM488 213H484L404 102H488V213Z" />
<glyph unicode="&#xbd;" glyph-name="onehalf" horiz-adv-x="716" d="M108 0H28L608 770H679L108 0ZM242 543Q242 528 243 518T249 503T263 496T286 493V468H138V493Q152 494 161 496T174 503T180 517T182 540V667Q182 690 182 705T180 725Q178 733 168 735T136
738V763Q161 764 189 768T242 780V543ZM469 44H548Q566 44 575 52T593 85H619L604 0H393V18Q438 58 466 87T511 141T534 185T541 226Q541 251 529 265T493 279Q476 279 464 267T452 238Q452 218 462 207T488 195Q486 184 476 177T450 169Q425 169 409 186T392 229Q392
265 422 288T501 312Q550 312 581 288T612 226Q612 202 601 179T571 134T525 91T469 48V44Z" />
<glyph unicode="&#xbe;" glyph-name="threequarters" horiz-adv-x="714" d="M114 0H34L614 770H685L114 0ZM375 102L530 312H561V101Q587 102 593 108T600 137H619V43H600Q600 62 594 67T561 73V65Q561 37 567 29T594 20V0H450V20Q464 21 473 22T486 28T492 41T494
62V72H375V102ZM494 213H490L410 102H494V213ZM247 556Q247 584 236 600T204 616Q196 613 189 611T175 609Q164 609 158 615T152 630Q152 649 174 649Q184 649 201 644Q218 644 229 661T240 705Q240 748 202 748Q164 748 164 719Q164 696 188 696Q186 688 176 682T153
676Q133 676 120 689T106 723Q106 749 131 764T202 780Q252 780 281 761T311 708Q311 682 293 662T247 636V632Q281 624 301 602T321 551Q321 513 287 489T201 464Q154 464 124 484T94 535Q94 557 109 571T146 586Q160 586 171 580T185 563Q174 563 166 554T158
531Q158 516 169 507T199 498Q247 498 247 556Z" />
<glyph unicode="&#xbf;" glyph-name="questiondown" horiz-adv-x="401" d="M284 531V294H249Q112 294 112 205Q112 183 119 164T138 131T167 108T203 99Q223 99 244 104T282 110Q311 110 329 94T348 51Q348 21 329 6T273 -10Q228 -10 187 10T115 65T64 145T45
240Q45 321 90 365T216 410V531H284ZM330 705Q330 673 308 651T254 629Q222 629 200 651T178 705Q178 737 200 758T254 780Q286 780 308 759T330 705Z" />
<glyph unicode="&#xc0;" glyph-name="Agrave" horiz-adv-x="809" d="M501 233H218Q171 127 171 86Q171 56 193 48T261 40V0H-13V40Q11 43 28 48T59 62T83 85T102 121L365 780H439L678 196Q699 145 713 116T744 72T782 50T838 41V0H460V41Q508 43 529 51T550 83Q550
97 543 119T524 173L501 233ZM241 293H479L364 596H360L241 293ZM369 830L253 858Q201 871 183 885T165 923Q165 940 179 950T222 960Q248 960 272 951T316 927L442 830H369Z" />
<glyph unicode="&#xc1;" glyph-name="Aacute" horiz-adv-x="809" d="M501 233H218Q171 127 171 86Q171 56 193 48T261 40V0H-13V40Q11 43 28 48T59 62T83 85T102 121L365 780H439L678 196Q699 145 713 116T744 72T782 50T838 41V0H460V41Q508 43 529 51T550 83Q550
97 543 119T524 173L501 233ZM241 293H479L364 596H360L241 293ZM364 830L490 927Q510 942 534 951T584 960Q612 960 626 950T641 923Q641 900 623 886T553 858L437 830H364Z" />
<glyph unicode="&#xc2;" glyph-name="Acircumflex" horiz-adv-x="809" d="M501 233H218Q171 127 171 86Q171 56 193 48T261 40V0H-13V40Q11 43 28 48T59 62T83 85T102 121L365 780H439L678 196Q699 145 713 116T744 72T782 50T838 41V0H460V41Q508 43 529 51T550
83Q550 97 543 119T524 173L501 233ZM241 293H479L364 596H360L241 293ZM456 960L580 830H513L398 879L283 830H216L340 960H456Z" />
<glyph unicode="&#xc3;" glyph-name="Atilde" horiz-adv-x="809" d="M501 233H218Q171 127 171 86Q171 56 193 48T261 40V0H-13V40Q11 43 28 48T59 62T83 85T102 121L365 780H439L678 196Q699 145 713 116T744 72T782 50T838 41V0H460V41Q508 43 529 51T550 83Q550
97 543 119T524 173L501 233ZM241 293H479L364 596H360L241 293ZM225 828Q235 887 268 924T344 962Q351 962 358 961T376 957T399 950T431 938Q462 926 479 921T510 916Q529 916 540 925T559 958H604Q600 932 588 904T560 856Q530 820 487 820Q469 820 450 825T402
845Q379 856 356 862T315 868Q298 868 289 860T271 828H225Z" />
<glyph unicode="&#xc4;" glyph-name="Adieresis" horiz-adv-x="809" d="M501 233H218Q171 127 171 86Q171 56 193 48T261 40V0H-13V40Q11 43 28 48T59 62T83 85T102 121L365 780H439L678 196Q699 145 713 116T744 72T782 50T838 41V0H460V41Q508 43 529 51T550
83Q550 97 543 119T524 173L501 233ZM241 293H479L364 596H360L241 293ZM235 903Q235 928 252 944T295 960Q322 960 339 944T357 903Q357 877 340 861T295 844Q269 844 252 860T235 903ZM452 903Q452 928 469 944T514 960Q539 960 556 944T574 903Q574 877 557
861T514 844Q487 844 470 860T452 903Z" />
<glyph unicode="&#xc5;" glyph-name="Aring" horiz-adv-x="809" d="M501 233H218Q171 127 171 86Q171 56 193 48T261 40V0H-13V40Q11 43 28 48T59 62T83 85T102 121L365 780H439L678 196Q699 145 713 116T744 72T782 50T838 41V0H460V41Q508 43 529 51T550 83Q550
97 543 119T524 173L501 233ZM241 293H479L364 596H360L241 293ZM337 895Q337 923 356 941T405 960Q434 960 453 942T473 895Q473 867 454 849T405 830Q376 830 357 848T337 895ZM379 895Q379 884 386 878T405 871Q416 871 423 877T430 895Q430 905 423 911T405
918Q394 918 387 912T379 895Z" />
<glyph unicode="&#xc6;" glyph-name="AE" horiz-adv-x="1136" d="M406 41Q439 42 460 47T492 64T507 98T511 155V274H263Q230 214 212 180T185 128T175 101T173 83Q173 67 180 59T198 48T222 43T250 41V0H-22V41Q2 44 20 49T52 63T78 86T103 122Q113 139 122 156T146
199T180 261T230 354T304 488T406 674Q414 690 414 699Q414 713 395 717T331 722V770H1054V574H1012Q1006 617 993 644T957 688T898 710T810 717H676Q658 717 658 700V426Q722 426 761 430T822 447T852 484T866 548H903V255H866Q860 292 851 315T821 352T762 371T658
376V167Q658 134 666 113T695 78T749 59T833 53Q887 53 925 61T988 90T1030 143T1056 227H1100L1085 0H406V41ZM511 334V721L297 334H511Z" />
<glyph unicode="&#xc7;" glyph-name="Ccedilla" horiz-adv-x="823" d="M707 770H756L736 517H696Q675 609 615 662T468 715Q409 715 363 692T286 625T238 519T221 378Q221 223 284 140T472 56Q572 56 637 110T731 271H775V0H728L714 79Q610 -5 464 -10L442 -62Q505
-62 541 -87T577 -155Q577 -202 538 -231T435 -260Q378 -260 341 -236T304 -174Q304 -154 313 -144T340 -133Q354 -133 363 -141T381 -170Q391 -194 400 -203T427 -212Q447 -212 459 -200T471 -167Q471 -113 395 -113Q387 -113 375 -113T356 -115L354 -112L400
-8Q319 -1 254 28T143 107T72 223T47 372Q47 463 77 538T161 667T291 750T459 780Q520 780 573 763T688 708L707 770Z" />
<glyph unicode="&#xc8;" glyph-name="Egrave" horiz-adv-x="764" d="M287 426Q351 426 390 430T450 446T481 483T495 548H532V255H495Q489 295 479 319T447 355T388 371T287 375V169Q287 137 295 115T324 80T377 61T458 55Q515 55 554 63T620 91T662 144T689 229H729L713
0H35V40Q68 41 89 46T121 63T136 97T140 154V616Q140 651 137 672T123 706T95 723T46 730V770H678L685 574H642Q636 616 623 643T587 687T528 710T438 717H325Q299 717 293 711T287 680V426ZM422 830L306 858Q254 871 236 885T218 923Q218 940 232 950T275 960Q301
960 325 951T369 927L495 830H422Z" />
<glyph unicode="&#xc9;" glyph-name="Eacute" horiz-adv-x="764" d="M287 426Q351 426 390 430T450 446T481 483T495 548H532V255H495Q489 295 479 319T447 355T388 371T287 375V169Q287 137 295 115T324 80T377 61T458 55Q515 55 554 63T620 91T662 144T689 229H729L713
0H35V40Q68 41 89 46T121 63T136 97T140 154V616Q140 651 137 672T123 706T95 723T46 730V770H678L685 574H642Q636 616 623 643T587 687T528 710T438 717H325Q299 717 293 711T287 680V426ZM318 830L444 927Q464 942 488 951T538 960Q566 960 580 950T595 923Q595
900 577 886T507 858L391 830H318Z" />
<glyph unicode="&#xca;" glyph-name="Ecircumflex" horiz-adv-x="764" d="M287 426Q351 426 390 430T450 446T481 483T495 548H532V255H495Q489 295 479 319T447 355T388 371T287 375V169Q287 137 295 115T324 80T377 61T458 55Q515 55 554 63T620 91T662 144T689
229H729L713 0H35V40Q68 41 89 46T121 63T136 97T140 154V616Q140 651 137 672T123 706T95 723T46 730V770H678L685 574H642Q636 616 623 643T587 687T528 710T438 717H325Q299 717 293 711T287 680V426ZM460 960L584 830H517L402 879L287 830H220L344 960H460Z"
/>
<glyph unicode="&#xcb;" glyph-name="Edieresis" horiz-adv-x="764" d="M287 426Q351 426 390 430T450 446T481 483T495 548H532V255H495Q489 295 479 319T447 355T388 371T287 375V169Q287 137 295 115T324 80T377 61T458 55Q515 55 554 63T620 91T662 144T689
229H729L713 0H35V40Q68 41 89 46T121 63T136 97T140 154V616Q140 651 137 672T123 706T95 723T46 730V770H678L685 574H642Q636 616 623 643T587 687T528 710T438 717H325Q299 717 293 711T287 680V426ZM219 903Q219 928 236 944T279 960Q306 960 323 944T341
903Q341 877 324 861T279 844Q253 844 236 860T219 903ZM436 903Q436 928 453 944T498 960Q523 960 540 944T558 903Q558 877 541 861T498 844Q471 844 454 860T436 903Z" />
<glyph unicode="&#xcc;" glyph-name="Igrave" horiz-adv-x="429" d="M393 0H36V40Q70 41 90 46T122 67T137 109T141 184V586Q141 628 138 655T124 699T96 721T46 730V770H383V730Q352 728 334 722T305 699T292 656T288 586V184Q288 137 291 110T306 67T338 47T393
40V0ZM273 830L157 858Q105 871 87 885T69 923Q69 940 83 950T126 960Q152 960 176 951T220 927L346 830H273Z" />
<glyph unicode="&#xcd;" glyph-name="Iacute" horiz-adv-x="429" d="M393 0H36V40Q70 41 90 46T122 67T137 109T141 184V586Q141 628 138 655T124 699T96 721T46 730V770H383V730Q352 728 334 722T305 699T292 656T288 586V184Q288 137 291 110T306 67T338 47T393
40V0ZM121 830L247 927Q267 942 291 951T341 960Q369 960 383 950T398 923Q398 900 380 886T310 858L194 830H121Z" />
<glyph unicode="&#xce;" glyph-name="Icircumflex" horiz-adv-x="429" d="M393 0H36V40Q70 41 90 46T122 67T137 109T141 184V586Q141 628 138 655T124 699T96 721T46 730V770H383V730Q352 728 334 722T305 699T292 656T288 586V184Q288 137 291 110T306 67T338
47T393 40V0ZM272 960L396 830H329L214 879L99 830H32L156 960H272Z" />
<glyph unicode="&#xcf;" glyph-name="Idieresis" horiz-adv-x="429" d="M393 0H36V40Q70 41 90 46T122 67T137 109T141 184V586Q141 628 138 655T124 699T96 721T46 730V770H383V730Q352 728 334 722T305 699T292 656T288 586V184Q288 137 291 110T306 67T338
47T393 40V0ZM45 903Q45 928 62 944T105 960Q132 960 149 944T167 903Q167 877 150 861T105 844Q79 844 62 860T45 903ZM262 903Q262 928 279 944T324 960Q349 960 366 944T384 903Q384 877 367 861T324 844Q297 844 280 860T262 903Z" />
<glyph unicode="&#xd0;" glyph-name="Eth" horiz-adv-x="920" d="M36 0V40Q69 41 89 45T121 62T137 96T141 154V376H54V436H141V616Q141 651 138 672T125 706T98 723T52 730V770H432Q528 770 609 740T749 657T841 531T874 372Q874 290 843 222T757 104T624 28T453
0H36ZM305 709Q288 709 288 692V436H421V376H288V175Q288 117 324 89T435 61Q566 61 636 140T707 370Q707 450 688 513T633 619T546 686T430 709H305Z" />
<glyph unicode="&#xd1;" glyph-name="Ntilde" horiz-adv-x="940" d="M670 -10L227 621H223V191Q223 141 226 112T241 67T273 46T327 40V0H30V40Q67 41 89 46T124 67T141 109T145 184V586Q145 628 141 655T126 699T95 721T40 730V770H319L722 192H726V579Q726 628
723 657T708 703T676 724T622 730V770H919V730Q882 729 860 724T825 703T808 660T804 586V-10H670ZM307 828Q317 887 350 924T426 962Q433 962 440 961T458 957T481 950T513 938Q544 926 561 921T592 916Q611 916 622 925T641 958H686Q682 932 670 904T642 856Q612
820 569 820Q551 820 532 825T484 845Q461 856 438 862T397 868Q380 868 371 860T353 828H307Z" />
<glyph unicode="&#xd2;" glyph-name="Ograve" horiz-adv-x="944" d="M472 780Q562 780 640 749T775 664T866 537T899 379Q899 298 866 227T775 104T639 21T472 -10Q383 -10 305 20T169 103T78 227T45 379Q45 464 78 537T168 664T304 749T472 780ZM472 55Q530 55
577 77T657 141T707 242T725 376Q725 454 708 516T657 623T577 691T472 715Q413 715 367 692T287 624T237 517T219 376Q219 302 236 243T287 142T366 78T472 55ZM528 830L412 858Q360 871 342 885T324 923Q324 940 338 950T381 960Q407 960 431 951T475 927L601
830H528Z" />
<glyph unicode="&#xd3;" glyph-name="Oacute" horiz-adv-x="944" d="M472 780Q562 780 640 749T775 664T866 537T899 379Q899 298 866 227T775 104T639 21T472 -10Q383 -10 305 20T169 103T78 227T45 379Q45 464 78 537T168 664T304 749T472 780ZM472 55Q530 55
577 77T657 141T707 242T725 376Q725 454 708 516T657 623T577 691T472 715Q413 715 367 692T287 624T237 517T219 376Q219 302 236 243T287 142T366 78T472 55ZM346 830L472 927Q492 942 516 951T566 960Q594 960 608 950T623 923Q623 900 605 886T535 858L419
830H346Z" />
<glyph unicode="&#xd4;" glyph-name="Ocircumflex" horiz-adv-x="944" d="M472 780Q562 780 640 749T775 664T866 537T899 379Q899 298 866 227T775 104T639 21T472 -10Q383 -10 305 20T169 103T78 227T45 379Q45 464 78 537T168 664T304 749T472 780ZM472 55Q530
55 577 77T657 141T707 242T725 376Q725 454 708 516T657 623T577 691T472 715Q413 715 367 692T287 624T237 517T219 376Q219 302 236 243T287 142T366 78T472 55ZM529 960L653 830H586L471 879L356 830H289L413 960H529Z" />
<glyph unicode="&#xd5;" glyph-name="Otilde" horiz-adv-x="944" d="M472 780Q562 780 640 749T775 664T866 537T899 379Q899 298 866 227T775 104T639 21T472 -10Q383 -10 305 20T169 103T78 227T45 379Q45 464 78 537T168 664T304 749T472 780ZM472 55Q530 55
577 77T657 141T707 242T725 376Q725 454 708 516T657 623T577 691T472 715Q413 715 367 692T287 624T237 517T219 376Q219 302 236 243T287 142T366 78T472 55ZM280 828Q290 887 323 924T399 962Q406 962 413 961T431 957T454 950T486 938Q517 926 534 921T565
916Q584 916 595 925T614 958H659Q655 932 643 904T615 856Q585 820 542 820Q524 820 505 825T457 845Q434 856 411 862T370 868Q353 868 344 860T326 828H280Z" />
<glyph unicode="&#xd6;" glyph-name="Odieresis" horiz-adv-x="944" d="M472 780Q562 780 640 749T775 664T866 537T899 379Q899 298 866 227T775 104T639 21T472 -10Q383 -10 305 20T169 103T78 227T45 379Q45 464 78 537T168 664T304 749T472 780ZM472 55Q530
55 577 77T657 141T707 242T725 376Q725 454 708 516T657 623T577 691T472 715Q413 715 367 692T287 624T237 517T219 376Q219 302 236 243T287 142T366 78T472 55ZM297 903Q297 928 314 944T357 960Q384 960 401 944T419 903Q419 877 402 861T357 844Q331 844
314 860T297 903ZM514 903Q514 928 531 944T576 960Q601 960 618 944T636 903Q636 877 619 861T576 844Q549 844 532 860T514 903Z" />
<glyph unicode="&#xd7;" glyph-name="multiply" horiz-adv-x="524" d="M423 121L261 283L97 119L51 165L215 329L53 491L101 539L263 377L427 541L473 495L309 331L471 169L423 121Z" />
<glyph unicode="&#xd8;" glyph-name="Oslash" horiz-adv-x="943" d="M472 780Q538 780 597 763T707 716L802 830H891L763 676Q826 621 862 545T899 379Q899 298 866 227T775 104T639 21T472 -10Q408 -10 351 5T243 49L135 -81H47L187 88Q121 142 83 216T45 379Q45
464 78 537T168 664T304 749T472 780ZM219 376Q219 259 262 179L644 639Q612 676 569 695T472 715Q413 715 367 692T287 624T237 517T219 376ZM472 55Q530 55 577 77T657 141T707 242T725 376Q725 436 714 487T683 580L304 122Q336 90 378 73T472 55Z" />
<glyph unicode="&#xd9;" glyph-name="Ugrave" horiz-adv-x="880" d="M757 310Q757 225 739 165T681 65T581 8T433 -10Q272 -10 198 57T123 273V547Q123 586 122 612T119 657T114 686T105 706Q96 720 79 725T27 730V770H386V730Q344 730 324 726T293 708Q286 700
282 689T275 659T271 613T270 547V285Q270 171 318 117T468 62Q674 62 674 291V522Q674 564 673 594T668 645T659 680T645 703Q631 717 609 723T548 730V770H872V730Q835 730 815 725T784 705Q776 696 771 682T763 646T759 594T757 522V310ZM526 830L410 858Q358
871 340 885T322 923Q322 940 336 950T379 960Q405 960 429 951T473 927L599 830H526Z" />
<glyph unicode="&#xda;" glyph-name="Uacute" horiz-adv-x="880" d="M757 310Q757 225 739 165T681 65T581 8T433 -10Q272 -10 198 57T123 273V547Q123 586 122 612T119 657T114 686T105 706Q96 720 79 725T27 730V770H386V730Q344 730 324 726T293 708Q286 700
282 689T275 659T271 613T270 547V285Q270 171 318 117T468 62Q674 62 674 291V522Q674 564 673 594T668 645T659 680T645 703Q631 717 609 723T548 730V770H872V730Q835 730 815 725T784 705Q776 696 771 682T763 646T759 594T757 522V310ZM334 830L460 927Q480
942 504 951T554 960Q582 960 596 950T611 923Q611 900 593 886T523 858L407 830H334Z" />
<glyph unicode="&#xdb;" glyph-name="Ucircumflex" horiz-adv-x="880" d="M757 310Q757 225 739 165T681 65T581 8T433 -10Q272 -10 198 57T123 273V547Q123 586 122 612T119 657T114 686T105 706Q96 720 79 725T27 730V770H386V730Q344 730 324 726T293 708Q286
700 282 689T275 659T271 613T270 547V285Q270 171 318 117T468 62Q674 62 674 291V522Q674 564 673 594T668 645T659 680T645 703Q631 717 609 723T548 730V770H872V730Q835 730 815 725T784 705Q776 696 771 682T763 646T759 594T757 522V310ZM525 960L649 830H582L467
879L352 830H285L409 960H525Z" />
<glyph unicode="&#xdc;" glyph-name="Udieresis" horiz-adv-x="880" d="M757 310Q757 225 739 165T681 65T581 8T433 -10Q272 -10 198 57T123 273V547Q123 586 122 612T119 657T114 686T105 706Q96 720 79 725T27 730V770H386V730Q344 730 324 726T293 708Q286
700 282 689T275 659T271 613T270 547V285Q270 171 318 117T468 62Q674 62 674 291V522Q674 564 673 594T668 645T659 680T645 703Q631 717 609 723T548 730V770H872V730Q835 730 815 725T784 705Q776 696 771 682T763 646T759 594T757 522V310ZM301 903Q301 928
318 944T361 960Q388 960 405 944T423 903Q423 877 406 861T361 844Q335 844 318 860T301 903ZM518 903Q518 928 535 944T580 960Q605 960 622 944T640 903Q640 877 623 861T580 844Q553 844 536 860T518 903Z" />
<glyph unicode="&#xdd;" glyph-name="Yacute" horiz-adv-x="760" d="M101 644Q86 670 74 687T48 713T20 726T-14 730V770H322V730Q280 730 263 722T246 698Q246 688 252 674T271 636L414 363H418L544 573Q577 629 590 656T603 700Q603 717 588 723T530 730V770H781V730Q759
730 741 723T704 696T660 639T601 543L455 293V191Q455 141 459 111T475 66T507 45T559 40V0H203V40Q234 40 254 45T287 65T303 108T308 184V276L101 644ZM252 830L378 927Q398 942 422 951T472 960Q500 960 514 950T529 923Q529 900 511 886T441 858L325 830H252Z"
/>
<glyph unicode="&#xde;" glyph-name="Thorn" horiz-adv-x="734" d="M294 601H399Q472 601 529 586T626 543T686 476T707 391Q707 336 689 294T632 224T531 181T379 166H294V147Q294 113 297 93T313 61T354 45T429 41V0H32V41Q69 42 91 46T126 62T143 95T147 152V615Q147
650 143 672T127 706T92 723T32 729V770H429V732Q381 732 354 728T314 711T297 676T294 618V601ZM294 226H359Q450 226 495 264T540 391Q540 466 503 505T399 544H312Q294 544 294 527V226Z" />
<glyph unicode="&#xdf;" glyph-name="germandbls" horiz-adv-x="711" d="M358 830Q416 830 463 816T543 777T595 715T614 636Q614 568 575 525T462 467V462Q507 462 545 444T612 393T657 317T673 223Q673 173 656 130T609 56T538 8T449 -10Q392 -10 357 14T321
76Q321 97 333 110T368 123Q389 123 399 111T417 85T432 58T455 46Q470 46 482 58T503 93T517 145T522 211Q522 317 475 374T342 431V492Q405 492 434 526T463 633Q463 770 356 770Q297 770 272 729T246 592V164Q246 127 248 103T255 66T270 47T294 41V0H16V41Q46
41 63 45T91 61T104 95T107 156V586Q107 704 172 767T358 830Z" />
<glyph unicode="&#xe0;" glyph-name="agrave" horiz-adv-x="574" d="M344 285Q260 247 218 215T175 147Q175 118 191 101T231 84Q255 84 276 92T312 115T335 148T344 190V285ZM344 338V380Q344 438 324 464T260 491Q231 491 216 476T188 424Q179 399 163 385T117
371Q89 371 74 388T59 436Q59 484 111 512T270 540Q382 540 430 500T478 364V145Q478 60 512 60Q531 60 547 73L562 44Q548 19 519 5T452 -10Q406 -10 382 18T358 97H353Q324 45 278 18T173 -9Q110 -9 72 26T34 119Q34 163 73 201T203 277L344 338ZM328 651L194
711Q162 725 144 738T125 768Q125 789 140 801T180 813Q200 813 220 803T265 770L392 651H328Z" />
<glyph unicode="&#xe1;" glyph-name="aacute" horiz-adv-x="574" d="M344 285Q260 247 218 215T175 147Q175 118 191 101T231 84Q255 84 276 92T312 115T335 148T344 190V285ZM344 338V380Q344 438 324 464T260 491Q231 491 216 476T188 424Q179 399 163 385T117
371Q89 371 74 388T59 436Q59 484 111 512T270 540Q382 540 430 500T478 364V145Q478 60 512 60Q531 60 547 73L562 44Q548 19 519 5T452 -10Q406 -10 382 18T358 97H353Q324 45 278 18T173 -9Q110 -9 72 26T34 119Q34 163 73 201T203 277L344 338ZM152 651L279
770Q303 793 323 803T364 813Q389 813 404 801T419 768Q419 751 401 738T350 711L211 651H152Z" />
<glyph unicode="&#xe2;" glyph-name="acircumflex" horiz-adv-x="574" d="M344 285Q260 247 218 215T175 147Q175 118 191 101T231 84Q255 84 276 92T312 115T335 148T344 190V285ZM344 338V380Q344 438 324 464T260 491Q231 491 216 476T188 424Q179 399 163
385T117 371Q89 371 74 388T59 436Q59 484 111 512T270 540Q382 540 430 500T478 364V145Q478 60 512 60Q531 60 547 73L562 44Q548 19 519 5T452 -10Q406 -10 382 18T358 97H353Q324 45 278 18T173 -9Q110 -9 72 26T34 119Q34 163 73 201T203 277L344 338ZM325
800L445 651H393L273 719L153 651H101L221 800H325Z" />
<glyph unicode="&#xe3;" glyph-name="atilde" horiz-adv-x="574" d="M344 285Q260 247 218 215T175 147Q175 118 191 101T231 84Q255 84 276 92T312 115T335 148T344 190V285ZM344 338V380Q344 438 324 464T260 491Q231 491 216 476T188 424Q179 399 163 385T117
371Q89 371 74 388T59 436Q59 484 111 512T270 540Q382 540 430 500T478 364V145Q478 60 512 60Q531 60 547 73L562 44Q548 19 519 5T452 -10Q406 -10 382 18T358 97H353Q324 45 278 18T173 -9Q110 -9 72 26T34 119Q34 163 73 201T203 277L344 338ZM88 660Q98 719
131 756T207 794Q214 794 221 793T239 789T262 782T294 770Q325 758 342 753T373 748Q392 748 403 757T422 790H467Q463 764 451 736T423 688Q393 652 350 652Q332 652 313 657T265 677Q242 688 219 694T178 700Q161 700 152 692T134 660H88Z" />
<glyph unicode="&#xe4;" glyph-name="adieresis" horiz-adv-x="574" d="M344 285Q260 247 218 215T175 147Q175 118 191 101T231 84Q255 84 276 92T312 115T335 148T344 190V285ZM344 338V380Q344 438 324 464T260 491Q231 491 216 476T188 424Q179 399 163 385T117
371Q89 371 74 388T59 436Q59 484 111 512T270 540Q382 540 430 500T478 364V145Q478 60 512 60Q531 60 547 73L562 44Q548 19 519 5T452 -10Q406 -10 382 18T358 97H353Q324 45 278 18T173 -9Q110 -9 72 26T34 119Q34 163 73 201T203 277L344 338ZM110 740Q110
768 128 786T174 805Q202 805 220 787T239 740Q239 713 221 695T174 676Q147 676 129 694T110 740ZM306 740Q306 768 324 786T370 805Q398 805 416 787T435 740Q435 713 417 695T370 676Q343 676 325 694T306 740Z" />
<glyph unicode="&#xe5;" glyph-name="aring" horiz-adv-x="574" d="M344 285Q260 247 218 215T175 147Q175 118 191 101T231 84Q255 84 276 92T312 115T335 148T344 190V285ZM344 338V380Q344 438 324 464T260 491Q231 491 216 476T188 424Q179 399 163 385T117
371Q89 371 74 388T59 436Q59 484 111 512T270 540Q382 540 430 500T478 364V145Q478 60 512 60Q531 60 547 73L562 44Q548 19 519 5T452 -10Q406 -10 382 18T358 97H353Q324 45 278 18T173 -9Q110 -9 72 26T34 119Q34 163 73 201T203 277L344 338ZM179 742Q179
780 204 805T269 830Q309 830 335 805T361 742Q361 705 335 681T269 656Q230 656 205 680T179 742ZM228 742Q228 725 240 714T269 703Q286 703 297 714T308 742Q308 758 297 768T269 779Q252 779 240 769T228 742Z" />
<glyph unicode="&#xe6;" glyph-name="ae" horiz-adv-x="889" d="M845 93Q794 39 740 15T614 -10Q444 -10 371 117Q343 57 292 24T175 -9Q109 -9 72 23T34 113Q34 138 42 159T70 200T121 238T198 276L344 338V380Q344 437 324 464T262 491Q248 491 238 489T220
479T204 459T189 427Q177 397 161 384T120 371Q91 371 75 387T59 433Q59 486 110 513T262 540Q400 540 448 482Q480 510 527 525T630 540Q737 540 795 482T853 317Q853 305 849 303T821 300H492Q488 291 488 260Q488 160 529 108T650 55Q693 55 731 71T817 128L845
93ZM344 286Q297 263 265 245T213 209T184 176T175 143Q175 116 193 100T241 84Q263 84 281 92T314 116T336 152T344 197V286ZM652 356Q673 356 685 357T703 361T712 369T714 385Q714 429 689 455T623 482Q579 482 546 449T499 356H652Z" />
<glyph unicode="&#xe7;" glyph-name="ccedilla" horiz-adv-x="564" d="M528 83Q491 41 436 19T318 -5L294 -62Q357 -62 393 -87T429 -155Q429 -202 390 -231T287 -260Q230 -260 193 -236T156 -174Q156 -154 165 -144T192 -133Q206 -133 215 -141T233 -170Q243
-194 252 -203T279 -212Q299 -212 311 -200T323 -167Q323 -113 247 -113Q239 -113 227 -113T208 -115L206 -112L255 0Q206 8 166 30T98 86T55 165T39 263Q39 325 60 376T119 463T210 520T327 540Q372 540 410 531T476 506T520 469T536 422Q536 393 520 376T475
359Q452 359 435 371T400 410Q385 434 375 448T355 469T337 479T315 482Q257 482 225 428T193 277Q193 173 231 117T342 61Q383 61 424 76T502 121L528 83Z" />
<glyph unicode="&#xe8;" glyph-name="egrave" horiz-adv-x="585" d="M540 93Q449 -10 313 -10Q251 -10 201 9T114 64T58 149T38 258Q38 320 59 371T118 460T209 519T325 540Q431 540 490 483T549 323Q549 307 544 304T516 300H194Q190 291 190 267Q190 169 232
112T348 55Q390 55 431 74T512 128L540 93ZM346 356Q386 356 397 360T409 382Q409 426 384 454T321 482Q278 482 245 447T201 356H346ZM324 651L190 711Q158 725 140 738T121 768Q121 789 136 801T176 813Q196 813 216 803T261 770L388 651H324Z" />
<glyph unicode="&#xe9;" glyph-name="eacute" horiz-adv-x="585" d="M540 93Q449 -10 313 -10Q251 -10 201 9T114 64T58 149T38 258Q38 320 59 371T118 460T209 519T325 540Q431 540 490 483T549 323Q549 307 544 304T516 300H194Q190 291 190 267Q190 169 232
112T348 55Q390 55 431 74T512 128L540 93ZM346 356Q386 356 397 360T409 382Q409 426 384 454T321 482Q278 482 245 447T201 356H346ZM232 651L359 770Q383 793 403 803T444 813Q469 813 484 801T499 768Q499 751 481 738T430 711L291 651H232Z" />
<glyph unicode="&#xea;" glyph-name="ecircumflex" horiz-adv-x="585" d="M540 93Q449 -10 313 -10Q251 -10 201 9T114 64T58 149T38 258Q38 320 59 371T118 460T209 519T325 540Q431 540 490 483T549 323Q549 307 544 304T516 300H194Q190 291 190 267Q190 169
232 112T348 55Q390 55 431 74T512 128L540 93ZM346 356Q386 356 397 360T409 382Q409 426 384 454T321 482Q278 482 245 447T201 356H346ZM367 800L487 651H435L315 719L195 651H143L263 800H367Z" />
<glyph unicode="&#xeb;" glyph-name="edieresis" horiz-adv-x="585" d="M540 93Q449 -10 313 -10Q251 -10 201 9T114 64T58 149T38 258Q38 320 59 371T118 460T209 519T325 540Q431 540 490 483T549 323Q549 307 544 304T516 300H194Q190 291 190 267Q190 169
232 112T348 55Q390 55 431 74T512 128L540 93ZM346 356Q386 356 397 360T409 382Q409 426 384 454T321 482Q278 482 245 447T201 356H346ZM167 740Q167 768 185 786T231 805Q259 805 277 787T296 740Q296 713 278 695T231 676Q204 676 186 694T167 740ZM363 740Q363
768 381 786T427 805Q455 805 473 787T492 740Q492 713 474 695T427 676Q400 676 382 694T363 740Z" />
<glyph unicode="&#xec;" glyph-name="igrave" horiz-adv-x="361" d="M257 164Q257 124 260 100T272 63T298 46T344 40V0H29V40Q57 41 74 46T101 64T114 99T118 157V280Q118 338 116 375T111 427Q106 452 89 460T25 468V502L257 540V164ZM216 651L82 711Q50 725
32 738T13 768Q13 789 28 801T68 813Q88 813 108 803T153 770L280 651H216Z" />
<glyph unicode="&#xed;" glyph-name="iacute" horiz-adv-x="361" d="M257 164Q257 124 260 100T272 63T298 46T344 40V0H29V40Q57 41 74 46T101 64T114 99T118 157V280Q118 338 116 375T111 427Q106 452 89 460T25 468V502L257 540V164ZM87 651L214 770Q238 793
258 803T299 813Q324 813 339 801T354 768Q354 751 336 738T285 711L146 651H87Z" />
<glyph unicode="&#xee;" glyph-name="icircumflex" horiz-adv-x="361" d="M257 164Q257 124 260 100T272 63T298 46T344 40V0H29V40Q57 41 74 46T101 64T114 99T118 157V280Q118 338 116 375T111 427Q106 452 89 460T25 468V502L257 540V164ZM239 800L359 651H307L187
719L67 651H15L135 800H239Z" />
<glyph unicode="&#xef;" glyph-name="idieresis" horiz-adv-x="361" d="M257 164Q257 124 260 100T272 63T298 46T344 40V0H29V40Q57 41 74 46T101 64T114 99T118 157V280Q118 338 116 375T111 427Q106 452 89 460T25 468V502L257 540V164ZM38 740Q38 768 56 786T102
805Q130 805 148 787T167 740Q167 713 149 695T102 676Q75 676 57 694T38 740ZM234 740Q234 768 252 786T298 805Q326 805 344 787T363 740Q363 713 345 695T298 676Q271 676 253 694T234 740Z" />
<glyph unicode="&#xf0;" glyph-name="eth" horiz-adv-x="661" d="M200 244Q200 149 233 97T321 45Q382 45 418 98T455 244Q455 342 419 398T322 454Q267 454 234 399T200 244ZM184 780Q233 766 281 750T366 712L502 787L532 744L416 680Q517 618 568 520T619 308Q619
238 597 180T534 79T439 14T320 -10Q261 -10 210 9T120 62T61 142T39 244Q39 300 59 349T116 434T202 492T311 513Q368 513 409 488T472 412L475 414Q454 491 423 546T345 642L205 566L181 609L305 675Q282 693 250 705T164 736L184 780Z" />
<glyph unicode="&#xf1;" glyph-name="ntilde" horiz-adv-x="727" d="M257 163Q257 122 259 99T270 63T296 46T344 40V0H29V40Q58 42 75 46T102 62T115 96T118 156V281Q118 340 116 376T111 426Q108 439 103 447T88 460T63 466T25 468V502L218 540L231 452H235Q268
494 313 517T412 540Q476 540 515 523T586 464Q603 441 616 405T629 304V163Q629 122 631 99T642 63T668 46T714 40V0H401V40Q431 41 448 45T475 62T487 96T490 156V292Q490 343 484 378T465 434T429 465T374 475Q342 475 319 457T279 407Q270 389 264 361T257
301V163ZM174 660Q184 719 217 756T293 794Q300 794 307 793T325 789T348 782T380 770Q411 758 428 753T459 748Q478 748 489 757T508 790H553Q549 764 537 736T509 688Q479 652 436 652Q418 652 399 657T351 677Q328 688 305 694T264 700Q247 700 238 692T220
660H174Z" />
<glyph unicode="&#xf2;" glyph-name="ograve" horiz-adv-x="660" d="M328 540Q388 540 441 520T535 463T599 378T623 269Q623 208 600 157T536 69T442 11T328 -10Q269 -10 216 10T123 68T60 156T37 269Q37 328 60 378T123 464T216 520T328 540ZM328 482Q298 482
273 467T231 423T204 356T194 268Q194 218 203 178T230 110T272 67T328 51Q359 51 384 66T428 110T456 179T466 268Q466 316 456 355T428 422T385 466T328 482ZM405 651L271 711Q239 725 221 738T202 768Q202 789 217 801T257 813Q277 813 297 803T342 770L469
651H405Z" />
<glyph unicode="&#xf3;" glyph-name="oacute" horiz-adv-x="660" d="M328 540Q388 540 441 520T535 463T599 378T623 269Q623 208 600 157T536 69T442 11T328 -10Q269 -10 216 10T123 68T60 156T37 269Q37 328 60 378T123 464T216 520T328 540ZM328 482Q298 482
273 467T231 423T204 356T194 268Q194 218 203 178T230 110T272 67T328 51Q359 51 384 66T428 110T456 179T466 268Q466 316 456 355T428 422T385 466T328 482ZM229 651L356 770Q380 793 400 803T441 813Q466 813 481 801T496 768Q496 751 478 738T427 711L288
651H229Z" />
<glyph unicode="&#xf4;" glyph-name="ocircumflex" horiz-adv-x="660" d="M328 540Q388 540 441 520T535 463T599 378T623 269Q623 208 600 157T536 69T442 11T328 -10Q269 -10 216 10T123 68T60 156T37 269Q37 328 60 378T123 464T216 520T328 540ZM328 482Q298
482 273 467T231 423T204 356T194 268Q194 218 203 178T230 110T272 67T328 51Q359 51 384 66T428 110T456 179T466 268Q466 316 456 355T428 422T385 466T328 482ZM380 800L500 651H448L328 719L208 651H156L276 800H380Z" />
<glyph unicode="&#xf5;" glyph-name="otilde" horiz-adv-x="660" d="M328 540Q388 540 441 520T535 463T599 378T623 269Q623 208 600 157T536 69T442 11T328 -10Q269 -10 216 10T123 68T60 156T37 269Q37 328 60 378T123 464T216 520T328 540ZM328 482Q298 482
273 467T231 423T204 356T194 268Q194 218 203 178T230 110T272 67T328 51Q359 51 384 66T428 110T456 179T466 268Q466 316 456 355T428 422T385 466T328 482ZM131 660Q141 719 174 756T250 794Q257 794 264 793T282 789T305 782T337 770Q368 758 385 753T416
748Q435 748 446 757T465 790H510Q506 764 494 736T466 688Q436 652 393 652Q375 652 356 657T308 677Q285 688 262 694T221 700Q204 700 195 692T177 660H131Z" />
<glyph unicode="&#xf6;" glyph-name="odieresis" horiz-adv-x="660" d="M328 540Q388 540 441 520T535 463T599 378T623 269Q623 208 600 157T536 69T442 11T328 -10Q269 -10 216 10T123 68T60 156T37 269Q37 328 60 378T123 464T216 520T328 540ZM328 482Q298
482 273 467T231 423T204 356T194 268Q194 218 203 178T230 110T272 67T328 51Q359 51 384 66T428 110T456 179T466 268Q466 316 456 355T428 422T385 466T328 482ZM179 740Q179 768 197 786T243 805Q271 805 289 787T308 740Q308 713 290 695T243 676Q216 676
198 694T179 740ZM375 740Q375 768 393 786T439 805Q467 805 485 787T504 740Q504 713 486 695T439 676Q412 676 394 694T375 740Z" />
<glyph unicode="&#xf7;" glyph-name="divide" horiz-adv-x="585" d="M539 306H47V370H539V306ZM220 521Q220 553 241 575T295 598Q328 598 350 576T372 521Q372 490 350 469T295 447Q263 447 242 468T220 521ZM220 151Q220 183 241 205T295 228Q328 228 350 206T372
151Q372 120 350 99T295 77Q263 77 242 98T220 151Z" />
<glyph unicode="&#xf8;" glyph-name="oslash" horiz-adv-x="658" d="M327 540Q371 540 411 529T486 497L565 592H646L537 461Q576 425 599 376T622 269Q622 208 599 157T535 69T441 11T327 -10Q285 -10 248 0T177 28L103 -61H23L127 64Q85 102 61 154T36 269Q36
328 59 378T122 464T215 520T327 540ZM327 482Q297 482 272 467T230 423T203 356T193 268Q193 208 207 161L426 424Q408 452 383 467T327 482ZM465 268Q465 319 453 360L236 99Q272 51 327 51Q358 51 383 66T427 110T455 179T465 268Z" />
<glyph unicode="&#xf9;" glyph-name="ugrave" horiz-adv-x="709" d="M465 366Q465 406 463 429T452 465T426 482T378 490V530H604V227Q604 166 605 132T611 80Q614 67 618 60T631 48T655 42T696 40V1L497 -11L486 78H482Q456 36 409 13T304 -10Q197 -10 141 66Q98
124 98 231V366Q98 407 96 430T86 466T60 482T13 490V530H237V247Q237 146 262 101T342 55Q401 55 433 109Q465 161 465 262V366ZM375 651L241 711Q209 725 191 738T172 768Q172 789 187 801T227 813Q247 813 267 803T312 770L439 651H375Z" />
<glyph unicode="&#xfa;" glyph-name="uacute" horiz-adv-x="709" d="M465 366Q465 406 463 429T452 465T426 482T378 490V530H604V227Q604 166 605 132T611 80Q614 67 618 60T631 48T655 42T696 40V1L497 -11L486 78H482Q456 36 409 13T304 -10Q197 -10 141 66Q98
124 98 231V366Q98 407 96 430T86 466T60 482T13 490V530H237V247Q237 146 262 101T342 55Q401 55 433 109Q465 161 465 262V366ZM219 651L346 770Q370 793 390 803T431 813Q456 813 471 801T486 768Q486 751 468 738T417 711L278 651H219Z" />
<glyph unicode="&#xfb;" glyph-name="ucircumflex" horiz-adv-x="709" d="M465 366Q465 406 463 429T452 465T426 482T378 490V530H604V227Q604 166 605 132T611 80Q614 67 618 60T631 48T655 42T696 40V1L497 -11L486 78H482Q456 36 409 13T304 -10Q197 -10 141
66Q98 124 98 231V366Q98 407 96 430T86 466T60 482T13 490V530H237V247Q237 146 262 101T342 55Q401 55 433 109Q465 161 465 262V366ZM371 800L491 651H439L319 719L199 651H147L267 800H371Z" />
<glyph unicode="&#xfc;" glyph-name="udieresis" horiz-adv-x="709" d="M465 366Q465 406 463 429T452 465T426 482T378 490V530H604V227Q604 166 605 132T611 80Q614 67 618 60T631 48T655 42T696 40V1L497 -11L486 78H482Q456 36 409 13T304 -10Q197 -10 141
66Q98 124 98 231V366Q98 407 96 430T86 466T60 482T13 490V530H237V247Q237 146 262 101T342 55Q401 55 433 109Q465 161 465 262V366ZM170 740Q170 768 188 786T234 805Q262 805 280 787T299 740Q299 713 281 695T234 676Q207 676 189 694T170 740ZM366 740Q366
768 384 786T430 805Q458 805 476 787T495 740Q495 713 477 695T430 676Q403 676 385 694T366 740Z" />
<glyph unicode="&#xfd;" glyph-name="yacute" horiz-adv-x="646" d="M287 -157Q276 -179 260 -198T223 -230T180 -252T136 -260Q103 -260 83 -244T63 -201Q63 -176 80 -162T137 -145Q226 -138 252 -89L279 -37L102 401Q90 430 82 447T63 473T40 486T8 490V530H311V490Q272
490 257 483T241 455Q241 447 243 437T250 415L352 123H356L442 318Q455 349 464 369T477 404T484 428T486 446Q486 472 472 481T413 490V530H654V490Q634 490 620 485T592 462T560 412T516 323L287 -157ZM270 651L397 770Q421 793 441 803T482 813Q507 813 522
801T537 768Q537 751 519 738T468 711L329 651H270Z" />
<glyph unicode="&#xfe;" glyph-name="thorn" horiz-adv-x="674" d="M85 594Q85 642 82 675T72 723Q69 730 64 734T50 742T27 749T-11 755V790L223 830V459H227Q281 540 385 540Q438 540 484 519T563 462T616 376T636 268Q636 209 616 158T560 70T476 11T371 -11Q324
-11 290 5T227 56V-90Q227 -130 231 -154T248 -191T284 -209T347 -215V-250H-13V-215Q18 -214 37 -209T67 -192T81 -156T85 -97V594ZM225 209Q225 173 234 143T261 92T303 59T357 47Q420 47 452 102T485 263Q485 477 355 477Q318 477 293 460T248 403Q236 377 231
353T225 298V209Z" />
<glyph unicode="&#xff;" glyph-name="ydieresis" horiz-adv-x="646" d="M287 -157Q276 -179 260 -198T223 -230T180 -252T136 -260Q103 -260 83 -244T63 -201Q63 -176 80 -162T137 -145Q226 -138 252 -89L279 -37L102 401Q90 430 82 447T63 473T40 486T8 490V530H311V490Q272
490 257 483T241 455Q241 447 243 437T250 415L352 123H356L442 318Q455 349 464 369T477 404T484 428T486 446Q486 472 472 481T413 490V530H654V490Q634 490 620 485T592 462T560 412T516 323L287 -157ZM220 740Q220 768 238 786T284 805Q312 805 330 787T349
740Q349 713 331 695T284 676Q257 676 239 694T220 740ZM416 740Q416 768 434 786T480 805Q508 805 526 787T545 740Q545 713 527 695T480 676Q453 676 435 694T416 740Z" />
<glyph unicode="&#x2013;" glyph-name="endash" horiz-adv-x="730" d="M66 243V336H664V243H66Z" />
<glyph unicode="&#x2014;" glyph-name="emdash" horiz-adv-x="1138" d="M66 243V336H1072V243H66Z" />
<glyph unicode="&#x2018;" glyph-name="quoteleft" horiz-adv-x="247" d="M195 788Q159 760 140 732T120 678Q124 680 130 680T142 681Q165 681 180 663T196 617Q196 584 174 562T119 540Q84 540 64 565T44 634Q44 685 75 735T166 830L195 788Z" />
<glyph unicode="&#x2019;" glyph-name="quoteright" horiz-adv-x="242" d="M55 582Q91 610 110 638T130 692Q126 690 120 690T108 689Q85 689 70 707T54 753Q54 786 76 808T131 830Q166 830 186 805T206 736Q206 685 175 635T84 540L55 582Z" />
<glyph unicode="&#x201a;" glyph-name="quotesinglbase" horiz-adv-x="261" d="M56 -142Q92 -114 111 -86T131 -32Q127 -34 121 -34T109 -35Q86 -35 71 -17T55 29Q55 62 77 84T132 106Q167 106 187 81T207 12Q207 -92 85 -184L56 -142Z" />
<glyph unicode="&#x201c;" glyph-name="quotedblleft" horiz-adv-x="453" d="M401 788Q365 760 346 732T326 678Q330 680 336 680T348 681Q371 681 386 663T402 617Q402 584 380 562T325 540Q290 540 270 565T250 634Q250 685 281 735T372 830L401 788ZM195 788Q159
760 140 732T120 678Q124 680 130 680T142 681Q165 681 180 663T196 617Q196 584 174 562T119 540Q84 540 64 565T44 634Q44 685 75 735T166 830L195 788Z" />
<glyph unicode="&#x201d;" glyph-name="quotedblright" horiz-adv-x="448" d="M55 582Q91 610 110 638T130 692Q126 690 120 690T108 689Q85 689 70 707T54 753Q54 786 76 808T131 830Q166 830 186 805T206 736Q206 685 175 635T84 540L55 582ZM261 582Q297 610
316 638T336 692Q332 690 326 690T314 689Q291 689 276 707T260 753Q260 786 282 808T337 830Q372 830 392 805T412 736Q412 685 381 635T290 540L261 582Z" />
<glyph unicode="&#x201e;" glyph-name="quotedblbase" horiz-adv-x="467" d="M56 -142Q92 -114 111 -86T131 -32Q127 -34 121 -34T109 -35Q86 -35 71 -17T55 29Q55 62 77 84T132 106Q167 106 187 81T207 12Q207 -92 85 -184L56 -142ZM262 -142Q298 -114 317 -86T337
-32Q333 -34 327 -34T315 -35Q292 -35 277 -17T261 29Q261 62 283 84T338 106Q373 106 393 81T413 12Q413 -92 291 -184L262 -142Z" />
<glyph unicode="&#x2022;" glyph-name="bullet" horiz-adv-x="466" d="M230 211Q198 211 170 223T119 258T84 308T71 369Q71 401 84 429T119 479T172 513T235 526Q267 526 296 514T347 480T382 430T395 369Q395 337 382 309T347 258T294 224T230 211Z" />
<glyph unicode="&#x2039;" glyph-name="guilsinglleft" horiz-adv-x="333" d="M46 262L242 447L274 424L182 262L272 101L238 77L46 262Z" />
<glyph unicode="&#x203a;" glyph-name="guilsinglright" horiz-adv-x="333" d="M95 77L61 101L151 262L59 424L91 447L287 262L95 77Z" />
</font>
</defs>
</svg>
